1 сезон

3 сезон

iTunes

1

iTunes

DUB Netflix

iTunes

13

1 сезон

RePack

30

Deluxe

pack

Легкие деньги

ВАЖНО

ИГРА 18+

pack

RePack

MK11

RePack

jed

RePack

fifa19

RePack

RDR2

RePack

NEED FOR SPEED™ PAYBACK

4 сезон

9 сезон

Бесстыжие 9 сезон

Все сериалы

все сериалы на PB.wtf

RePack

FAR CRY 5

Anonymous, добрый день, мы не успеваем до 1 числа собрать деньги на оплату серверов, помогите нам пожалуйста в это трудное время. В качестве благодарности мы отключим Вам всю рекламу на сайте (укажите свой ник в строку Ваше имя)!

×
  
Magnet ссылка

СашаТаня / Сезон 5 / Серии 1-16 из 16 (Михаил Старчак) [2018, Комедия, WEB-DL 720p] piratbit.org

СашаТаня через торрент piratbit.org

Размер: 9.04 GB | Добавлен: 3 года 4 мес. назад | Торрент скачан:120 раз
Скачать  

23-01-2018 12:27 СашаТаня Скачать торрент  

СашаТаняГод выпуска: 2018
Страна: Россия
Жанр: Комедия
Продолжительность: x ~ 00:24:00
Субтитры: отсутствуют

Режиссер: Михаил Старчак

rating

В ролях:

Андрей Гайдулян, Валентина Рубцова, Алексей Климушкин, Елена Бирюкова, Татьяна Орлова, Андрей Лебедев, Ксения Хаирова, Олег Новиков, Сергей Рудзевич, Сергей Мурзин, Андрей Свиридов, Павел Кассинский, Виталий Гогунский, Арарат Кещян, Ёлка, Алексей Гаврилов, Лариса Баранова, Алина Кизиярова-Ланина, Екатерина Шукшина, Владимир Епифанцев

Описание:

Сериал про молодую семью Сергеевых. После окончания института Саша и Таня вместе со своим маленьким сыном Алёшкой решили пожить самостоятельно и сняли квартиру в Южном Бутово. Райончик конечно не из лучших, но зато и цены на жилье тут доступные, ведь Саша не собирается пользоваться миллиардами своего папы. Но Сильвестр Андреевич не собирается так просто отставать от молодых и тем более от своего внука. Поэтому он поселился по соседству, только в просторной и роскошной квартире.

Качество: WEB-DL 720p
Формат: MKV
Видео кодек: H.264
Аудио кодек: AC3

Видео: MPEG-4 AVC, ~ 3500 Кбит/с, 1280x720, 25 кадр/с
Аудио: AC3, 2 ch, 192 Кбит/с
скриншот  скриншот  скриншот  

Общее
Уникальный идентификатор : 213375835629276910122426474316551529782 (0xA086B0ED8C7F6C009CB5A7F91E49A536)
Полное имя : D:\САШАТАНЯ.s05.2017.WEB-DL (720p).Files-x\01. САШАТАНЯ.s05.2018.WEB-DL (720p).Files-x.mkv
Формат : Matroska
Версия формата : Version 2
Размер файла : 580 Мбайт
Продолжительность : 21 м. 29 с.
Общий поток : 3774 Кбит/сек
Дата кодирования : UTC 2018-01-23 11:55:04
Программа кодирования : mkvmerge v7.8.0 ('River Man') 32bit built on Apr 3 2015 12:11:22
Библиотека кодирования : libebml v1.3.1 + libmatroska v1.4.2

Видео
Идентификатор : 1
Формат : AVC
Формат/Информация : Advanced Video Codec
Профиль формата : High@L3.1
Параметр CABAC формата : Да
Параметр ReFrames формата : 1 кадр
Параметр GOP формата : M=1, N=12
Идентификатор кодека : V_MPEG4/ISO/AVC
Продолжительность : 21 м. 29 с.
Битрейт : 3507 Кбит/сек
Ширина : 1280 пикселей
Высота : 720 пикселей
Соотношение сторон : 16:9
Режим частоты кадров : Постоянный
Частота кадров : 25,000 кадров/сек
Стандарт вещания : Component
Цветовое пространство : YUV
Субдискретизация насыщенности : 4:2:0
Битовая глубина : 8 бит
Тип развёртки : Прогрессивная
Бит/(Пиксели*Кадры) : 0.152
Размер потока : 539 Мбайт (93%)
Default : Да
Forced : Нет
Цветовой диапазон : Limited

Аудио
Идентификатор : 2
Формат : AC-3
Формат/Информация : Audio Coding 3
Расширение режима : CM (complete main)
Параметр Endianness формата : Big
Идентификатор кодека : A_AC3
Продолжительность : 21 м. 29 с.
Вид битрейта : Постоянный
Битрейт : 192 Кбит/сек
Каналы : 2 канала
Расположение каналов : Front: L R
Частота : 44,1 КГц
Частота кадров : 28,711 кадров/сек (1536 spf)
Метод сжатия : С потерями
Размер потока : 29,5 Мбайт (5%)
Default : Да
Forced : Нет

Когда раздача ведётся путём добавления новых серий, при каждом добавлении создётся новый торрент. Чтобы начать докачку новой серии, пользователям необходимо сделать следующее:
(1) остановить скачивание,
(2) удалить старый торрент у себя из клиента (старые серии удалять не надо),
(3) скачать новый торрент и запустить его у себя в клиенте вместо старого, при этом указать клиенту путь в старую папку, куда и должно происходить скачивание новых серий.
Ваш клиент при этом должен произвести хеширование (проверку) старой папки (если не производит сам - помогите ему сделать это), и будет докачивать только те серии, которых у вас ещё нет. Старые серии при этом не удаляются, а продолжают раздаваться!
Eсли вы уже удалили старые серии, то предотвратить повторную закачку старых серий можно, отжав галочку в соответсвующих местах при запуске нового торрента. По возможности, желательно не удалять старые серии как можно дольше, чтобы релизёр не столько продолжал раздавать старые серии, а смог сконцентрироваться на новых.
piratbit.org



Скачать СашаТаня через торрент http://i99.fastpic.ru/big/2018/0122/b3/8f4671bfc6d5353b5e476f1b6a318cb3.jpg Скачать фильм СашаТаня через торрент бесплантно в хорошем качестве Описание: Сериал про молодую семью Сергеевых. После окончания института Саша и Таня вместе со своим маленьким сыном Алёшкой решили пожить ... 10 10 17
Торрент: Зарегистрирован [2018-02-02 02:50] · скачан: 120 раз
Статус: √ проверено
Размер: 9.04 GB
Как cкачать? Как скачать СашаТаня через торрент | UTorrent

% Раздел Тема Автор DL S | L
TNT serials [ 4.61 GB ] СашаТаня / Сезон 5 / Серии 1-16 из 16 [2018 WEB-DLRip] bober100 Скачать
1 | 0
TNT serials [ 3.47 GB ] СашаТаня / Сезон 5 / Серии 1-16 из 16 [2018 HDTVRip] bober100 Скачать
1 | 0
TNT serials [ 4.75 GB ] СашаТаня / Сезон 5 / Серии 1-16 из 16 [2018 SATRip] bober100 Скачать
1 | 0


Последний раз редактировалось: bober100 (2018-02-02 02:50), всего редактировалось 6 раз(а)

28-11-2019 20:33  

Отключить всю рекламу на сайте

24-01-2018 20:22 СашаТаня Скачать торрент  

звук ужасен, удалил..piratbit.org



25-01-2018 04:56 СашаТаня Скачать торрент  

+8piratbit.org



26-01-2018 03:42 СашаТаня Скачать торрент  

+10piratbit.org



30-01-2018 01:37 СашаТаня Скачать торрент  

+12piratbit.org



31-01-2018 03:11 СашаТаня Скачать торрент  

+14piratbit.org



01-02-2018 02:27 СашаТаня Скачать торрент  

+15piratbit.org



01-02-2018 16:57 СашаТаня Скачать торрент  

15-ая Последняя в сезоне?piratbit.org



13-02-2018 05:34 СашаТаня Скачать торрент  

w.a.s.p. писал(а):

звук ужасен, удалил..

Гонишь чтоли?! Пробки из ушей вытащи! Или калькулятор свой выкинь! Звук как и качество Отличный!!! Все серии посмотрел с удовольствием!!! "Мозг удали свой"!piratbit.org



    Дорогой пользователь! Огромная просьба, поблагодарите релизера, оцените раздачу и оставьте свои комментарий, если Вы скачали СашаТаня через торрент бесплатно! Внесите свою лепту в развитие PiratBit!
    Комментировать посты могут только пользователи прошедшие не сложную регистрацию
    Показать сообщения:    

    СашаТаня через торрент
    Скачать бесплатно СашаТаня
    СашаТаня скачать торрент
    СашаТаня смотреть онлайн
    Cкачать фильм СашаТаня бесплатно
    СашаТаня скачать торрент в хорошем качестве
    СашаТаня смотреть онлайн бесплатно в хорошем качестве


    Вы не можете начинать темы
    Вы не можете отвечать на сообщения
    Вы не можете редактировать свои сообщения
    Вы не можете удалять свои сообщения
    Вы не можете голосовать в опросах
    Вы не можете прикреплять файлы к сообщениям
    Вы можете скачивать файлы