Достать ножи: Стеклянная луковица

MVO

Добыча

Дубляж

Уэнсдэй

1 сезон

Тор

Дубляж

13 клиническая

1 сезон

Жестокая ночь

MVO

Одни из нас

1 сезон

Deluxe

pack

Рекомендуем

30

Пиратка

ВАЖНО

ВАЖНО

Ghostwire

Пиратка

jed

RePack

nioh2

RePack

RDR2

RePack

NEED FOR SPEED™ PAYBACK

RePack

скачать торрент

Кинопоиск HD

Острые козырьки 6 сезон

6 сезон

FAR CRY 6

RePack

скачать торрент

Лицензия

скачать торрент

MVO

1

1 сезон

скачать торрент

1 сезон

скачать торрент

Лицензия

  

Конан-варвар / Conan the Barbarian (Маркус Ниспел) [2011, Фэнтези, боевик, приключения, UHD BDRemux 2160p] Дубляж+2xAVO

Конан-варвар через торрент piratbit.org

Размер: 45.77 GB | Добавлен: 5 лет назад | Торрент скачан:70 раз
Смотреть онлайн | Скачать | Поддержите нас   

23-01-2018 15:31 Конан-варвар Скачать торрент  

Конан-варвар / Conan the Barbarian Год выпуска: 2011
Страна: США
Жанр: Фэнтези, боевик, приключения
Продолжительность: 01:52:26

Перевод:

#1: Дублированный
#2: Авторский | Гаврилов
#3: Авторский | Алексеев

Субтитры: Русские (full), английские

Режиссер: Маркус Ниспел

rating

В ролях:

Джейсон Момоа, Стивен Лэнг, Рэйчел Николс, Роуз МакГоун, Рон Перлман, Нонсо Анози, Саид Тагмауи, Боб Сапп, Лео Ховард, Стив О’Доннелл, Раад Рави, Лайла Руасс, Милтон Уэлш, Борислав Илиев, Натан Джонс, Диана Любенова, Алина Пускау, Йоан Карамфилов, Райчо Василев, Станимир Стаматов, Николай Станоев, Ивана Станева, Антон Трендафилов, Джексон Спиделл, Радослав Парванов, Теодора Духовникова, Шелли Варод

Описание:

Природа наделила его силой. Гибель отца сделала его свирепым. Великий киммерийский воин Конан отправляется в дальнее странствие, чтобы совершить отмщение за кровь своего рода. Но поиски, которые начинаются как личная вендетта, вскоре оборачиваются эпической схваткой со сверхъестественными силами, поработившими народы великой Хайбории. Киммерийский воин — последняя надежда на спасение…

Качество: UHD BDRemux 2160p
Формат: MKV

Видео: MPEG-H HEVC HDR Video, 3840x2160, 51.2 Mbit/s, 23.976 fps
Аудио#1: 48 kHz, AC3, 5.1, 448 Kbps | Дублированный | RUS |
Аудио#2: 48 kHz, AC3, 5.1, 384 Kbps | Авторский | RUS |
Аудио#3: 48 kHz, AC3, 2.0, 192 Kbps | Авторский | RUS |
Аудио#4: 48 kHz, TrueHD, 7.1, 5323 Kbps | Оригинал | ENG |
Аудио#5: 48 kHz, AC3, 5.1, 640 Kbps | Оригинал | ENG |
скриншот  скриншот  скриншот  скриншот  скриншот  

General
Unique ID : 320526257993396948697319986585484406786 (0xF1231CA071C3DF055EF2E88504743002)
Complete name : G:VideoSSDConan.the.Barbarian.2011.D.AVO.BDREMUX.2160p.4K.UltraHD.HEVC.HDR.ExKinoRay.mkv
Format : Matroska
Format version : Version 4 / Version 2
File size : 45.8 GiB
Duration : 1 h 52 min
Overall bit rate mode : Variable
Overall bit rate : 58.3 Mb/s
Movie name : Conan the Barbarian 2011 from ExKinoRay
Encoded date : UTC 2018-01-23 14:48:20
Writing application : mkvmerge v20.0.0 ('I Am The Sun') 64-bit
Writing library : libebml v1.3.5 + libmatroska v1.4.8

Video
ID : 1
Format : HEVC
Format/Info : High Efficiency Video Coding
Format profile : Main 10@L5.1@High
Codec ID : V_MPEGH/ISO/HEVC
Duration : 1 h 52 min
Bit rate : 51.2 Mb/s
Width : 3 840 pixels
Height : 2 160 pixels
Display aspect ratio : 16:9
Frame rate mode : Constant
Frame rate : 23.976 (24000/1001) FPS
Color space : YUV
Chroma subsampling : 4:2:0 (Type 2)
Bit depth : 10 bits
Bits/(Pixel*Frame) : 0.258
Stream size : 40.2 GiB (88%)
Language : English
Default : Yes
Forced : No
Color range : Limited
Color primaries : BT.2020
Transfer characteristics : PQ
Matrix coefficients : BT.2020 non-constant
Mastering display color pri : R: x=0.680000 y=0.320000, G: x=0.265000 y=0.690000, B: x=0.150000 y=0.060000, White point: x=0.312700 y=0.329000
Mastering display luminance : min: 0.0000 cd/m2, max: 1000.0000 cd/m2
Maximum Content Light Level : 1000 cd/m2
Maximum Frame-Average Light : 740 cd/m2

Audio #1
ID : 2
Format : AC-3
Format/Info : Audio Coding 3
Codec ID : A_AC3
Duration : 1 h 52 min
Bit rate mode : Constant
Bit rate : 448 kb/s
Channel(s) : 6 channels
Channel positions : Front: L C R, Side: L R, LFE
Sampling rate : 48.0 kHz
Frame rate : 31.250 FPS (1536 SPF)
Bit depth : 16 bits
Compression mode : Lossy
Stream size : 360 MiB (1%)
Title : Дубляж
Language : Russian
Service kind : Complete Main
Default : Yes
Forced : No

Audio #2
ID : 3
Format : AC-3
Format/Info : Audio Coding 3
Codec ID : A_AC3
Duration : 1 h 52 min
Bit rate mode : Constant
Bit rate : 384 kb/s
Channel(s) : 6 channels
Channel positions : Front: L C R, Side: L R, LFE
Sampling rate : 48.0 kHz
Frame rate : 31.250 FPS (1536 SPF)
Bit depth : 16 bits
Compression mode : Lossy
Stream size : 309 MiB (1%)
Title : AVO [Gavrilov]
Language : Russian
Service kind : Complete Main
Default : No
Forced : No

Audio #3
ID : 4
Format : AC-3
Format/Info : Audio Coding 3
Codec ID : A_AC3
Duration : 1 h 52 min
Bit rate mode : Constant
Bit rate : 192 kb/s
Channel(s) : 2 channels
Channel positions : Front: L R
Sampling rate : 48.0 kHz
Frame rate : 31.250 FPS (1536 SPF)
Bit depth : 16 bits
Compression mode : Lossy
Stream size : 154 MiB (0%)
Title : AVO [Alekseev]
Language : Russian
Service kind : Complete Main
Default : No
Forced : No

Audio #4
ID : 5
Format : TrueHD
Format profile : TrueHD+Atmos / TrueHD
Codec ID : A_TRUEHD
Duration : 1 h 52 min
Bit rate mode : Variable
Bit rate : 5 323 kb/s
Maximum bit rate : 7 986 kb/s
Channel(s) : Object Based / 8 channels
Channel positions : Object Based / Front: L C R, Side: L R, Back: L R, LFE
Sampling rate : / 48.0 kHz
Frame rate : 1 200.000 FPS (40 SPF)
Compression mode : Lossless
Stream size : 4.18 GiB (9%)
Title : Original
Language : English
Default : No
Forced : No

Audio #5
ID : 6
Format : AC-3
Format/Info : Audio Coding 3
Codec ID : A_AC3
Duration : 1 h 52 min
Bit rate mode : Constant
Bit rate : 640 kb/s
Channel(s) : 6 channels
Channel positions : Front: L C R, Side: L R, LFE
Sampling rate : 48.0 kHz
Frame rate : 31.250 FPS (1536 SPF)
Bit depth : 16 bits
Compression mode : Lossy
Stream size : 515 MiB (1%)
Language : English
Service kind : Complete Main
Default : No
Forced : No

Text #1
ID : 7
Format : UTF-8
Codec ID : S_TEXT/UTF8
Codec ID/Info : UTF-8 Plain Text
Duration : 1 h 43 min
Bit rate : 37 b/s
Count of elements : 704
Stream size : 28.3 KiB (0%)
Title : Full
Language : Russian
Default : No
Forced : No

Text #2
ID : 8
Format : UTF-8
Codec ID : S_TEXT/UTF8
Codec ID/Info : UTF-8 Plain Text
Duration : 1 h 43 min
Bit rate : 22 b/s
Count of elements : 604
Stream size : 16.9 KiB (0%)
Title : Full
Language : English
Default : No
Forced : No

Menu
00:00:00.000 : en:Chapter 1
00:04:31.396 : en:Chapter 2
00:10:37.845 : en:Chapter 3
00:17:41.852 : en:Chapter 4
00:26:15.991 : en:Chapter 5
00:29:10.290 : en:Chapter 6
00:37:56.649 : en:Chapter 7
00:47:50.367 : en:Chapter 8
00:51:48.688 : en:Chapter 9
01:00:16.529 : en:Chapter 10
01:08:09.293 : en:Chapter 11
01:13:58.892 : en:Chapter 12
01:17:45.160 : en:Chapter 13
01:22:28.276 : en:Chapter 14
01:33:32.273 : en:Chapter 15
01:41:00.179 : en:Chapter 16




Скачать Конан-варвар через торрент http://img12.lostpic.net/2018/01/23/73b305739d649fff7e3ee81f7f42542d.jpg Скачать, смотреть онлайн Конан-варвар бесплантно в хорошем качестве Описание: Природа наделила его силой. Гибель отца сделала его свирепым. Великий киммерийский воин Конан отправляется в дальнее странствие, ... 9 10 5
Info! Золотая раздача, скачанное не засчитывается.
Торрент: Зарегистрирован [2018-01-23 15:31] · скачан: 70 раз
Статус: √ проверено
Размер: 45.77 GB
Как cкачать? Как скачать Конан-варвар через торрент | UTorrent

28-11-2019 20:33  


Отключить вcю реклaмy на сайте, в т.ч. и в плеере онлайн просмотра!

    Дорогой пользователь! Огромная просьба, поблагодарите релизера, оцените раздачу и оставьте свои комментарий, если Вы скачали Конан-варвар через торрент бесплатно!!
    Комментировать посты могут только пользователи прошедшие не сложную регистрацию
    Показать сообщения:    


    Конан-варвар через торрент
    Скачать бесплатно Конан-варвар
    Конан-варвар скачать торрент
    Конан-варвар смотреть онлайн
    Cкачать фильм Конан-варвар бесплатно
    Конан-варвар скачать торрент в хорошем качестве
    Конан-варвар смотреть онлайн бесплатно в хорошем качестве
    Вы не можете начинать темы
    Вы не можете отвечать на сообщения
    Вы не можете редактировать свои сообщения
    Вы не можете удалять свои сообщения
    Вы не можете голосовать в опросах
    Вы не можете прикреплять файлы к сообщениям
    Вы можете скачивать файлы
    Конан-варвар / Conan the Barbarian [2011, Фэнтези, боевик, приключения, UHD BDRemux 2160p] Дубляж+2xAVO смотреть онлайн, скачать торрент picoco.icu