1 сезон

1 сезон

iTunes

1

КиноПоиск HD

Кинопоиск HD

iTunes

13

1 сезон

RePack

30

Новинка

ВАЖНО

ИГРА 18+

pack

RePack

MK11
pack

Легкие деньги

RePack

jed

RePack

fifa19

RePack

RDR2

RePack

NEED FOR SPEED™ PAYBACK

4 сезон

9 сезон

Бесстыжие 9 сезон

Все сериалы

все сериалы на PB.wtf

RePack

FAR CRY 5
  
Magnet ссылка

Странник (Денис Колонтай, Иван Качалин, Дмитрий Глазовский) [2017, Драма, арт-хаус, WEBRip 720p] piratbit.org

Странник через торрент piratbit.org

Размер: 1.64 GB | Добавлен: 3 года 2 мес. назад | Торрент скачан:32 раза
Скачать  

24-01-2018 13:56 Странник Скачать торрент  

СтранникГод выпуска: 2017
Страна: Россия
Жанр: Драма, арт-хаус
Продолжительность: 01:25:00
Перевод: Не требуется Русский
Субтитры: отсутствуют

Режиссер: Денис Колонтай, Иван Качалин, Дмитрий Глазовский

rating

В ролях:

Иван Качалин, Денис Колонтай, Иван Степанов, Максим Дурманов, Виктор Буланкин, Дмитрий Витер, Дмитрий Глазовский, Михаил Смирнов, Маргарита Куклина

Описание:

Никто никогда не встречал Отшельника, а если и встречал, то не узнавал его в лицо. Его приезд всегда инициирует некий «принцип домино», «лавину» событий, что меняет всё до неузнаваемости. Но в этом странном месте, под названием Станция, его уже ожидают. Поиски Бога, смысла и способа жизни, себя и своего места в этом жестоком месте делают из людей Странников, тех, кто ни на миг не смыкает глаз и продолжает вечный поиск.

Качество: WEBRip 720p
Формат: MKV
Видео: MPEG-4 AVC, ~ 2569 Кбит/с, 1280x720
Аудио#1: AC3, 2 ch, 192 Кбит/с

скриншот  скриншот  скриншот  

Общее
Уникальный идентификатор : 11075875828487402899915582343955404134 (0x85522D6EA317B9A32DE95394880D566)
Полное имя : D:\Странник.2017.WEB-DL.720.Files-x..mkv
Формат : Matroska
Версия формата : Version 4 / Version 2
Размер файла : 1,64 Гбайт
Продолжительность : 1 ч. 25 м.
Общий поток : 2758 Кбит/сек
Программа кодирования : Lavf56.25.101
Библиотека кодирования : Lavf56.25.101 / Lavf56.25.101

Видео
Идентификатор : 1
Формат : AVC
Формат/Информация : Advanced Video Codec
Профиль формата : High@L4
Параметр CABAC формата : Да
Параметр ReFrames формата : 4 кадра
Параметр GOP формата : M=7, N=50
Идентификатор кодека : V_MPEG4/ISO/AVC
Продолжительность : 1 ч. 25 м.
Битрейт : 2569 Кбит/сек
Ширина : 1280 пикселей
Высота : 720 пикселей
Соотношение сторон : 16:9
Режим частоты кадров : Постоянный
Частота кадров : 25,000 кадров/сек
Цветовое пространство : YUV
Субдискретизация насыщенности : 4:2:0
Битовая глубина : 8 бит
Тип развёртки : Прогрессивная
Бит/(Пиксели*Кадры) : 0.112
Размер потока : 1,50 Гбайт (91%)
Библиотека кодирования : x264 core 142
Настройки программы : cabac=1 / ref=3 / deblock=1:0:0 / analyse=0x3:0x113 / me=hex / subme=7 / psy=1 / psy_rd=1.00:0.00 / mixed_ref=1 / me_range=16 / chroma_me=1 / trellis=1 / 8x8dct=1 / cqm=0 / deadzone=21,11 / fast_pskip=1 / chroma_qp_offset=-2 / threads=36 / lookahead_threads=5 / sliced_threads=0 / nr=0 / decimate=1 / interlaced=0 / bluray_compat=0 / constrained_intra=0 / bframes=6 / b_pyramid=2 / b_adapt=1 / b_bias=0 / direct=1 / weightb=1 / open_gop=0 / weightp=2 / keyint=50 / keyint_min=26 / scenecut=0 / intra_refresh=0 / rc_lookahead=40 / rc=2pass / mbtree=1 / bitrate=2569 / ratetol=1.0 / qcomp=0.60 / qpmin=0 / qpmax=69 / qpstep=4 / cplxblur=20.0 / qblur=0.5 / vbv_maxrate=3854 / vbv_bufsize=10279 / nal_hrd=none / filler=0 / ip_ratio=1.40 / aq=1:1.00
Default : Да
Forced : Нет

Аудио
Идентификатор : 2
Формат : AC-3
Формат/Информация : Audio Coding 3
Расширение режима : CM (complete main)
Параметр Endianness формата : Big
Идентификатор кодека : A_AC3
Продолжительность : 1 ч. 25 м.
Вид битрейта : Постоянный
Битрейт : 192 Кбит/сек
Каналы : 2 канала
Расположение каналов : Front: L R
Частота : 48,0 КГц
Частота кадров : 31,250 кадров/сек (1536 spf)
Метод сжатия : С потерями
Задержка видео : -80 мс.
Размер потока : 117 Мбайт (7%)
Default : Да
Forced : Нет

piratbit.org



Скачать Странник через торрент http://i103.fastpic.ru/big/2018/0124/80/1f0b106002825832e6266b25e2f48a80.png Скачать фильм Странник через торрент бесплантно в хорошем качестве Описание: Никто никогда не встречал Отшельника, а если и встречал, то не узнавал его в лицо. Его приезд всегда инициирует некий «принцип ... 7.8 10 4
Торрент: Зарегистрирован [2018-01-24 13:56] · скачан: 32 раз
Статус: T временная
Размер: 1.64 GB
Как cкачать? Как скачать Странник через торрент | UTorrent

% Раздел Тема Автор DL S | L
Фантастика [ 588 MB ] Радагор Воронов - Странник-3. Тайны Карателей [Семён Ващенко 2021 128 kbps MP3] bober100 Скачать
1 | 0
Фантастика [ 683 MB ] Радагор Воронов - Странник-2. Большая охота [Семён Ващенко 2021 128 kbps MP3] bober100 Скачать
1 | 0
Фантастика [ 644 MB ] Радагор Воронов - Странник 1.|Скользящий [Семен Ващенко 2020 128 kbps MP3] urapavel Скачать
1 | 0
Фантастика [ 804 MB ] Андрей Круз Мария Круз - На пороге тьмы 4. Странник [Кравец Андрей 2014 128 kbps MP3] urapavel Скачать
2 | 0
Фантастика [ 723 MB ] Круз Андрей Круз Мария - На пороге тьмы 5. Странники [Андрей Кравец 2016 128 kbps MP3] urapavel Скачать
2 | 0
T Наши фильмы (HD, WEB-DL 720p, 1080p) [ 3.7 GB ] Странники терпенья [2018 WEB-DL 1080p] bober100 Скачать
1 | 0
T Наши фильмы 2018-2019 [ 1.46 GB ] Странники терпенья [2018 WEB-DLRip] bober100 Скачать
1 | 0

28-11-2019 20:33  

Отключить всю рекламу на сайте

    Дорогой пользователь! Огромная просьба, поблагодарите релизера, оцените раздачу и оставьте свои комментарий, если Вы скачали Странник через торрент бесплатно! Внесите свою лепту в развитие PiratBit!
    Комментировать посты могут только пользователи прошедшие не сложную регистрацию
    Показать сообщения:    

    Странник через торрент
    Скачать бесплатно Странник
    Странник скачать торрент
    Странник смотреть онлайн
    Cкачать фильм Странник бесплатно
    Странник скачать торрент в хорошем качестве
    Странник смотреть онлайн бесплатно в хорошем качестве


    Вы не можете начинать темы
    Вы не можете отвечать на сообщения
    Вы не можете редактировать свои сообщения
    Вы не можете удалять свои сообщения
    Вы не можете голосовать в опросах
    Вы не можете прикреплять файлы к сообщениям
    Вы можете скачивать файлы