Доктор Стрэндж

Лицензия

Добыча

Дубляж

Дом дракона

1 сезон

Тор

Дубляж

В эфире

Дубляж

Там, где раки поют

MVO

Властелин колец

1 сезон

Ultimate

pack

Рекомендуем

30

Пиратка

ВАЖНО

ВАЖНО

Ghostwire

Пиратка

jed

RePack

nioh2

RePack

RDR2

RePack

NEED FOR SPEED™ PAYBACK

RePack

скачать торрент

Кинопоиск HD

Острые козырьки 6 сезон

6 сезон

FAR CRY 6

RePack

скачать торрент

Лицензия

скачать торрент

MVO

1

1 сезон

скачать торрент

1 сезон

скачать торрент

Лицензия

  

Мишень / Target (Артур Пенн) [1985, боевик, триллер, драма, криминал, детектив, приключения, BDRip 720p ] AVO

Мишень через торрент piratbit.org

Размер: 5.04 GB | Добавлен: 4 года 10 мес. назад | Торрент скачан:26 раз
Смотреть онлайн | Скачать   

27-01-2018 09:06 Мишень Скачать торрент  

Название: Мишень
Оригинальное название: Target
Год выпуска: 1985
Страна: США
Жанр: боевик, триллер, драма, криминал, детектив, приключения
Продолжительность: 01:52:20
Перевод: авторский

Режиссер: Артур Пенн
В ролях: Джин Хэкмен, Мэтт Диллон, Гэйл Ханникат, Рэнди Мур, Виктория Фёдорова, Йозеф Зоммер, Гай Бойд, Херберт Бергхоф, Илона Грюбель, Джеймс Селби

Описание: Уолтер Ллойд, владелец небольшого лесного участка, скромно живёт с семьёй в Далласе, штат Техас. Он заботливый и внимательный отец, но его сыну Крису скучно жить по стандартам отца. Бросив колледж, он решает участвовать в автомобильных гонках. Однако все проблемы меркнут, когда приходит тревожное известие из Европы. В Париже похищают жену Уолтера Данну, отправившуюся в путешествие. Отец с сыном вылетают в Париж, чтобы на месте разобраться в ситуации. Именно там Крис переживает настоящее потрясение, увидев отца в совершенно новом свете, и с изумлением узнаёт, что тот — бывший секретный агент ЦРУ...



Качество: BDRip 720p
Формат: MKV
Видео: MPEG-4 AVC, 5521 Kбит/с, 1258х720, 25.000 кадр/с
Аудио 1: русский, AC3, 448 kbps, 6 ch [авторский, Алексей Михалёв]
Аудио 2: английский, AC3, 448 kbps, 6 ch, 48 kHz [оригинал]
Субтитры: английские
Неименованные главы/чаптеры.
Общее
Уникальный идентификатор : 191734721511771119812341469569820548550 (0x903EC39F95CF01DFBA645B2E63525DC6)
Полное имя : D:\Video\Мишень.1985.BDRip.720p by msltel.mkv
Формат : Matroska
Версия формата : Version 4 / Version 2
Размер файла : 5,04 Гбайт
Продолжительность : 1 ч. 52 м.
Общий поток : 6419 Кбит/сек
Название фильма : Rip by msltel
Дата кодирования : UTC 2018-01-27 06:34:00
Программа кодирования : mkvmerge v8.2.0 ('World of Adventure') 64bit
Библиотека кодирования : libebml v1.3.1 + libmatroska v1.4.2

Видео
Идентификатор : 1
Формат : AVC
Формат/Информация : Advanced Video Codec
Профиль формата : High@L4.1
Настройки формата : CABAC / 9 Ref Frames
Параметр CABAC формата : Да
Параметр RefFrames формата : 9 кадров
Идентификатор кодека : V_MPEG4/ISO/AVC
Продолжительность : 1 ч. 52 м.
Битрейт : 5521 Кбит/сек
Ширина : 1258 пикселей
Высота : 720 пикселей
Соотношение сторон : 16:9
Режим частоты кадров : Постоянный
Частота кадров : 25,000 кадров/сек
Цветовое пространство : YUV
Субдискретизация насыщенности : 4:2:0
Битовая глубина : 8 бит
Тип развёртки : Прогрессивная
Бит/(Пиксели*Кадры) : 0.244
Размер потока : 4,33 Гбайт (86%)
Библиотека кодирования : x264 core 146 r2538 121396c
Настройки программы : cabac=1 / ref=9 / deblock=1:-3:-2 / analyse=0x3:0x113 / me=umh / subme=11 / psy=1 / psy_rd=1.00:0.15 / mixed_ref=1 / me_range=32 / chroma_me=1 / trellis=2 / 8x8dct=1 / cqm=0 / deadzone=21,11 / fast_pskip=0 / chroma_qp_offset=-3 / threads=6 / lookahead_threads=1 / sliced_threads=0 / nr=0 / decimate=1 / interlaced=0 / bluray_compat=0 / constrained_intra=0 / bframes=9 / b_pyramid=2 / b_adapt=2 / b_bias=0 / direct=1 / weightb=1 / open_gop=0 / weightp=2 / keyint=250 / keyint_min=25 / scenecut=40 / intra_refresh=0 / rc_lookahead=40 / rc=crf / mbtree=0 / crf=19.8 / qcomp=0.60 / qpmin=0 / qpmax=69 / qpstep=4 / vbv_maxrate=62500 / vbv_bufsize=78125 / crf_max=0.0 / nal_hrd=none / filler=0 / ip_ratio=1.40 / pb_ratio=1.30 / aq=1:1.00
Язык : English
Default : Да
Forced : Нет

Аудио #1
Идентификатор : 2
Формат : AC-3
Формат/Информация : Audio Coding 3
Идентификатор кодека : A_AC3
Продолжительность : 1 ч. 52 м.
Вид битрейта : Постоянный
Битрейт : 448 Кбит/сек
Каналы : 6 каналов
Расположение каналов : Front: L C R, Side: L R, LFE
Частота : 48,0 КГц
Частота кадров : 31,250 кадров/сек (1536 SPF)
Битовая глубина : 16 бит
Метод сжатия : С потерями
Размер потока : 360 Мбайт (7%)
Заголовок : Алексей Михалёв
Язык : Russian
ServiceKind/String : Complete Main
Default : Да
Forced : Нет

Аудио #2
Идентификатор : 3
Формат : AC-3
Формат/Информация : Audio Coding 3
Идентификатор кодека : A_AC3
Продолжительность : 1 ч. 52 м.
Вид битрейта : Постоянный
Битрейт : 448 Кбит/сек
Каналы : 6 каналов
Расположение каналов : Front: L C R, Side: L R, LFE
Частота : 48,0 КГц
Частота кадров : 31,250 кадров/сек (1536 SPF)
Битовая глубина : 16 бит
Метод сжатия : С потерями
Размер потока : 360 Мбайт (7%)
Заголовок : original
Язык : English
ServiceKind/String : Complete Main
Default : Нет
Forced : Нет

Текст
Идентификатор : 4
Формат : UTF-8
Идентификатор кодека : S_TEXT/UTF8
Идентификатор кодека/Информация : UTF-8 Plain Text
Продолжительность : 1 ч. 48 м.
Битрейт : 50 бит/сек
ElementCount : 1161
Размер потока : 40,3 Кбайт (0%)
Заголовок : английские
Язык : English
Default : Нет
Forced : Нет



Скачать Мишень через торрент https://c.radikal.ru/c28/1801/d8/08105f0f1c3d.jpg Скачать, смотреть онлайн Мишень бесплантно в хорошем качестве Описание: Уолтер Ллойд, владелец небольшого лесного участка, скромно живёт с семьёй в Далласе, штат Техас. Он заботливый и внимательный ... 10 10 1
Info! Золотая раздача, скачанное не засчитывается.
Торрент: Зарегистрирован [2018-01-27 09:06] · скачан: 26 раз
Статус: √ проверено
Размер: 5.04 GB
Как cкачать? Как скачать Мишень через торрент | UTorrent

% Раздел Тема Автор DL S | L
Фильмы с авторской озвучкой [ 15.12 GB ] Мишень / Target | AVO | 1080p msltel Скачать
1 | 0

28-11-2019 20:33  


Отключить вcю реклaмy на сайте, в т.ч. и в плеере онлайн просмотра!

27-01-2018 18:59 Мишень Скачать торрент  

Топик был перенесен из форума Фильмы с авторской озвучкой в форум Фильмы [HD 720p, 1080p] (Звук Cam, VO, DVO)


koenig



    Дорогой пользователь! Огромная просьба, поблагодарите релизера, оцените раздачу и оставьте свои комментарий, если Вы скачали Мишень через торрент бесплатно!!
    Комментировать посты могут только пользователи прошедшие не сложную регистрацию
    Показать сообщения:    


    Мишень через торрент
    Скачать бесплатно Мишень
    Мишень скачать торрент
    Мишень смотреть онлайн
    Cкачать фильм Мишень бесплатно
    Мишень скачать торрент в хорошем качестве
    Мишень смотреть онлайн бесплатно в хорошем качестве
    Вы не можете начинать темы
    Вы не можете отвечать на сообщения
    Вы не можете редактировать свои сообщения
    Вы не можете удалять свои сообщения
    Вы не можете голосовать в опросах
    Вы не можете прикреплять файлы к сообщениям
    Вы можете скачивать файлы
    Мишень / Target [1985, боевик, триллер, драма, криминал, детектив, приключения, BDRip 720p ] AVO смотреть онлайн, скачать торрент picoco.icu