Ссылка на приватное зеркало нашего сайта всего за 1$. Внимание количество ограничено!!!

2 сезон

iTunes

iTunes

1

iTunes

iTunes

iTunes

WEBRip

iTunes

30
pack

Вам бонус

ВАЖНО

!!Акция!!

Alien_RageХит недели

RePack

Horizon Zero Dawn

ИГРА 18+

pack

RePack

jed

!!Акция!!

Alien_Rage

RePack

fifa19

RePack

Assassins Creed: Odyssey

RePack

NEED FOR SPEED™ PAYBACK

4 сезон

9 сезон

Бесстыжие 9 сезон

Все сериалы

все сериалы на PB.wtf

RePack

FAR CRY 5
  

Класс / Klass (Ильмар Рааг / Ilmar Raag) [2007, драма, BDRip-AVC] MVO [Лицензия] piratbit.org

Класс через торрент piratbit.org

Раздают: 1 [ 0 KB/s ]
Размер: 2.16 GB | Добавлен: 2 года 7 мес. назад | Торрент скачан:37 раз
Скачать  

29-01-2018 12:19 Класс Скачать торрент  

Класс
Klass

«Я не умру вам назло…»


Страна: Эстония
Жанр: драма

Год выпуска: 2007
Продолжительность: 01:37:35

Перевод: Профессиональный (многоголосый, закадровый) [DVD R5]
Субтитры: русские (полные, 2 вида), английские (полные)
Оригинальная аудиодорожка: эстонский

Режиссер: Ильмар Рааг / Ilmar Raag

В ролях: Валло Кирс, Пярт Уусберг, Лаури Педайя, Паула Солвак, Микк Мяги, Риина Риес, Йонас Паас, Кади Метсла, Трийн Тенсо, Вирго Эрнитс, Карл Сакритс, Лиина Йонас

Описание:
Обычная эстонская школа, выпускной класс. Парень по имени Йозеп постоянно терпит насмешки и издевательства со стороны одноклассников. Никогда не отвечая на выпады, он провоцирует их заходить в глупых «шутках» все дальше и дальше, до тех пор, пока за него не заступился один из бывших насмешников - Каспар. В классе начинается противостояние, которое постепенно накаляется, приближая неминуемую развязку...



Релиз:

Автор рипа: stalkerok | Моя группа

Сэмпл

Качество видео: BDRip-AVC [BDRemux 1080i @ arxivariys [The Class 2007 1080i CZE Blu-ray AVC DD 5.1]]
Формат видео: MKV
Видео кодек: AVC
Аудио кодек: AC3
Видео: 2520 Кбит/сек, 1152x646 (16:9), 25 кадр/сек, AVC
Аудио #1: русский, 192 Кбит/сек, 48,0 КГц, 2 канала, AC-3
Аудио #2: эстонский, 448 Кбит/сек, 48,0 КГц, 6 каналов, AC-3
Навигация по главам: есть

---[Information] [29.01.2018 1:02:26] x264 [info]: frame I:1041 Avg QP:18.10 size: 51622
---[Information] [29.01.2018 1:02:26] x264 [info]: frame P:32882 Avg QP:19.77 size: 24911
---[Information] [29.01.2018 1:02:26] x264 [info]: frame B:112456 Avg QP:21.90 size: 8641

Общее
Уникальный идентификатор : 211614973831408976752999362812530964233 (0x9F338FBD0A19CC95ABC53D3A4A64B709)
Полное имя : M:\$new\Klass 2007\Klass.2007.BDRip-AVC.RUS.EST.stalkerok.new-team.mkv
Формат : Matroska
Версия формата : Version 4 / Version 2
Размер файла : 2,16 Гбайт
Продолжительность : 1 ч. 37 м.
Общий поток : 3163 Кбит/сек
Название фильма : Klass (2007) (Rip by stalkerok)
Дата кодирования : UTC 2018-01-29 10:44:03
Программа кодирования : mkvmerge v8.6.1 ('Flying') 64bit
Библиотека кодирования : libebml v1.3.3 + libmatroska v1.4.4

Видео
Идентификатор : 5
Формат : AVC
Формат/Информация : Advanced Video Codec
Профиль формата : High@L4.1
Параметр CABAC формата : Да
Параметр ReFrames формата : 11 кадров
Идентификатор кодека : V_MPEG4/ISO/AVC
Продолжительность : 1 ч. 37 м.
Битрейт : 2520 Кбит/сек
Ширина : 1152 пикселя
Высота : 646 пикселей
Соотношение сторон : 16:9
Режим частоты кадров : Постоянный
Частота кадров : 25,000 кадров/сек
Цветовое пространство : YUV
Субдискретизация насыщенности : 4:2:0
Битовая глубина : 8 бит
Тип развёртки : Прогрессивная
Бит/(Пиксели*Кадры) : 0.135
Размер потока : 1,72 Гбайт (80%)
Заголовок : Klass (2007) (Rip by stalkerok)
Библиотека кодирования : x264 core 152 r2851kMod ba24899
Настройки программы : cabac=1 / ref=11 / deblock=1:-3:-2 / analyse=0x3:0x133 / me=umh / subme=11 / psy=1 / fade_compensate=0.00 / psy_rd=1.00:0.00 / mixed_ref=1 / me_range=32 / chroma_me=1 / trellis=2 / 8x8dct=1 / cqm=0 / deadzone=21,11 / fast_pskip=0 / chroma_qp_offset=-2 / threads=12 / lookahead_threads=3 / sliced_threads=0 / nr=0 / decimate=1 / interlaced=0 / bluray_compat=0 / constrained_intra=0 / bframes=13 / b_pyramid=2 / b_adapt=2 / b_bias=0 / direct=3 / weightb=1 / open_gop=0 / weightp=2 / keyint=250 / keyint_min=25 / scenecut=40 / intra_refresh=0 / rc_lookahead=60 / rc=crf / mbtree=0 / crf=19.8000 / qcomp=0.65 / qpmin=0 / qpmax=69 / qpstep=4 / vbv_maxrate=50000 / vbv_bufsize=62500 / crf_max=0.0 / nal_hrd=none / filler=0 / ip_ratio=1.40 / pb_ratio=1.30 / aq=3:0.80 / zones=140252,146378,q=34
Default : Да
Forced : Нет

Аудио #1
Идентификатор : 1
Формат : AC-3
Формат/Информация : Audio Coding 3
Расширение режима : CM (complete main)
Параметр Endianness формата : Big
Идентификатор кодека : A_AC3
Продолжительность : 1 ч. 37 м.
Вид битрейта : Постоянный
Битрейт : 192 Кбит/сек
Каналы : 2 канала
Расположение каналов : Front: L R
Частота : 48,0 КГц
Частота кадров : 31,250 кадров/сек (1536 spf)
Метод сжатия : С потерями
Размер потока : 134 Мбайт (6%)
Заголовок : MVO, R5
Язык : Russian
Default : Да
Forced : Нет

Аудио #2
Идентификатор : 6
Формат : AC-3
Формат/Информация : Audio Coding 3
Расширение режима : CM (complete main)
Параметр Endianness формата : Big
Идентификатор кодека : A_AC3
Продолжительность : 1 ч. 37 м.
Вид битрейта : Постоянный
Битрейт : 448 Кбит/сек
Каналы : 6 каналов
Расположение каналов : Front: L C R, Side: L R, LFE
Частота : 48,0 КГц
Частота кадров : 31,250 кадров/сек (1536 spf)
Метод сжатия : С потерями
Размер потока : 313 Мбайт (14%)
Язык : Estonian
Default : Нет
Forced : Нет

Текст #1
Идентификатор : 2
Формат : UTF-8
Идентификатор кодека : S_TEXT/UTF8
Идентификатор кодека/Информация : UTF-8 Plain Text
Продолжительность : 1 ч. 34 м.
Битрейт : 65 бит/сек
Count of elements : 850
Размер потока : 45,2 Кбайт (0%)
Заголовок : R5
Язык : Russian
Default : Нет
Forced : Нет

Текст #2
Идентификатор : 3
Формат : UTF-8
Идентификатор кодека : S_TEXT/UTF8
Идентификатор кодека/Информация : UTF-8 Plain Text
Продолжительность : 1 ч. 33 м.
Битрейт : 59 бит/сек
Count of elements : 777
Размер потока : 40,4 Кбайт (0%)
Язык : Russian
Default : Нет
Forced : Нет

Текст #3
Идентификатор : 4
Формат : UTF-8
Идентификатор кодека : S_TEXT/UTF8
Идентификатор кодека/Информация : UTF-8 Plain Text
Продолжительность : 1 ч. 33 м.
Битрейт : 36 бит/сек
Count of elements : 775
Размер потока : 25,0 Кбайт (0%)
Язык : English
Default : Нет
Forced : Нет

Меню
00:00:00.000 : :Chapter 01
00:15:49.800 : :Chapter 02
00:31:33.760 : :Chapter 03
00:46:16.000 : :Chapter 04
01:06:18.600 : :Chapter 05
01:21:32.720 : :Chapter 06
скриншот   скриншот   скриншот   скриншот   скриншот   скриншот   скриншот   скриншот   скриншот  
piratbit.org



Скачать Класс через торрент http://i6.imageban.ru/out/2017/09/18/2ff75c0c358795c5946784cc1680714d.png Скачать фильм Класс через торрент бесплантно в хорошем качестве Описание:Обычная эстонская школа, выпускной класс. Парень по имени Йозеп постоянно терпит насмешки и издевательства со стороны ... 5 10 1
Info! Золотая раздача, скачанное не засчитывается.
Торрент: Зарегистрирован [2018-01-29 12:19] · скачан: 37 раз
Статус: √ проверено
Размер: 2.16 GB
Как cкачать? Как скачать Класс через торрент | qTorrent

% Раздел Тема Автор DL S | L
Фильмы (WEB-DL 720p, 1080p) [ 10.86 GB ] Летающий класс / Das fliegende Klassenzimmer [2003 WEB-DL 1080p] MVO bober100 Скачать
1 | 0
T Фильмы (мультфильмы) cо спонсором показа (Новинки AVI/MKV) [ 2.05 GB ] Встреча одноклассников / Klassentreffen 1.0 [2018 HDRip] DUB [Line] bober100 Скачать
1 | 0
T Фильмы (мультфильмы) cо спонсором показа (Новинки AVI/MKV) [ 1.37 GB ] Встреча одноклассников / Klassentreffen 1.0 [2018 HDRip] DUB [Line] bober100 Скачать
1 | 0
Фильмы 2006-2008 [ 746 MB ] Класс / Klass [2007 BDRip-AVC] MVO [] sokol_ok Скачать
2 | 0
Фильмы 2006-2008 [ 1.49 GB ] Класс / Klass [2007 BDRip-AVC] MVO [] sokol_ok Скачать
2 | 0
Фильмы 2006-2008 [ 1.45 GB ] Класс / Klass [2007 Эстония BDRip] MVO Ворон Скачать
1 | 0
Фильмы (Blu-ray, BD-Remux, HDDVD) [ 14.59 GB ] Класс / Klass [2007 BD-Remux MVO ] VintMosina Скачать
1 | 0

28-11-2019 20:33  

Отключить всю рекламу на сайте

    Дорогой пользователь! Огромная просьба, поблагодарите релизера, оцените раздачу и оставьте свои комментарий, если Вы скачали Класс через торрент бесплатно! Внесите свою лепту в развитие PiratBit!
    Комментировать посты могут только пользователи прошедшие не сложную регистрацию
    Показать сообщения:    

    Класс через торрент
    Скачать бесплатно Класс
    Класс скачать торрент
    Класс смотреть онлайн
    Cкачать фильм Класс бесплатно
    Класс скачать торрент в хорошем качестве
    Класс смотреть онлайн бесплатно в хорошем качестве


    Вы не можете начинать темы
    Вы не можете отвечать на сообщения
    Вы не можете редактировать свои сообщения
    Вы не можете удалять свои сообщения
    Вы не можете голосовать в опросах
    Вы не можете прикреплять файлы к сообщениям
    Вы можете скачивать файлы