2 сезон

iTunes

WEBRip

1

2 сезон

iTunes

1 сезон

1 сезон

RePack

30

Новинка

ВАЖНО

ИГРА 18+

pack

RePack

MK11
pack

Легкие деньги

RePack

jed

RePack

fifa19

RePack

RDR2

RePack

NEED FOR SPEED™ PAYBACK

4 сезон

9 сезон

Бесстыжие 9 сезон

Все сериалы

все сериалы на PB.wtf

RePack

FAR CRY 5

Anonymous, добрый вечер, мы не успеваем собрать деньги на оплату серверов за февраль, помогите нам пожалуйста в это трудное время. В качестве благодарности мы отключим Вам всю рекламу на сайте (укажите свой ник в строку Ваше имя)!

×
  
Magnet ссылка

Воровка книг / The Book Thief (Брайан Персивал / Brian Percival) [2013 г., драма, военный, BDRip-AVC] [Ukr DUB] piratbit.org

Воровка книг через торрент piratbit.org

Размер: 1.95 GB | Добавлен: 3 года 1 мес. назад | Торрент скачан:24 раза
Скачать  

29-01-2018 12:45 Воровка книг Скачать торрент  

Воровка книг / The Book Thief
Год выхода : 2013
Страна : США, Германия
Жанр : драма, военный
Продолжительность : 02:10:59
Перевод : Украинский (дублированный)
Субтитры: Украинские, английские

Режиссер : Брайан Персивал

В ролях : Софи Нелисс, Джеффри Раш, Эмили Уотсон, Роджер Аллам, Хайке Макач, Джулиан Леманн, Готард Ланге, Райнер Рейнерс, Керстен Блок, Нико Лирш

Германия, начало 1939 года, канун Второй мировой войны. Смерть готовится начать свою жатву. Девятилетняя Лизель переезжает в Мюнхен к своим приемным родителям и с их помощью учится читать. С каждым днем чтение становится ее жизненной потребностью, и Лизель начинает воровать книги — единственную отраду ее жизни. Все, что она узнает из них, помогает ей понять события, происходящие вокруг нее — гонение на евреев, антифашистское движение, унижения и голод. Все это, в конце концов, сложится в ее собственную историю, историю ее жизни.



Качество : BDRip-AVC
Формат видео : MKV
Видео кодек: AVC
Аудио кодек: AС3
Видео : AVC (x264), 1032 х 430, ~1492 kbps, 23.976 fps
Аудио №1: AС3, 48 KHz, 2 ch, 192 Kbps [DUB]
Аудио №2: AС3, 48 KHz, 6 ch, 448 Kbps [ENG]

Релиз --
General
Unique ID : 180596487728440935142840702894246011471 (0x87DD9E4CA0891E44B20B14F32905224F)
Complete name : E:\The.Book.Thief.2013.BDRip.H264.DD2.0[UKR].DD5.1[ENG].SRT[UKR,ENG]-Hurtom.mkv
Format : Matroska
Format version : Version 4 / Version 2
File size : 1.95 GiB
Duration : 2 h 10 min
Overall bit rate : 2 133 kb/s
Encoded date : UTC 2018-01-28 20:56:40
Writing application : mkvmerge v17.0.0 ('Be Ur Friend') 64-bit
Writing library : libebml v1.3.5 + libmatroska v1.4.8

Video
ID : 1
Format : AVC
Format/Info : Advanced Video Codec
Format profile : High@L4.1
Format settings : CABAC / 10 Ref Frames
Format settings, CABAC : Yes
Format settings, RefFrames : 10 frames
Codec ID : V_MPEG4/ISO/AVC
Duration : 2 h 10 min
Bit rate : 1 492 kb/s
Width : 1 032 pixels
Height : 430 pixels
Display aspect ratio : 2.40:1
Frame rate mode : Constant
Frame rate : 23.976 FPS
Color space : YUV
Chroma subsampling : 4:2:0
Bit depth : 8 bits
Scan type : Progressive
Bits/(Pixel*Frame) : 0.140
Stream size : 1.33 GiB (68%)
Writing library : x264 core 130 r2273 b3065e6
Encoding settings : cabac=1 / ref=10 / deblock=1:-2:-2 / analyse=0x3:0x133 / me=umh / subme=11 / psy=1 / psy_rd=0.96:0.00 / mixed_ref=1 / me_range=32 / chroma_me=1 / trellis=2 / 8x8dct=1 / cqm=0 / deadzone=21,11 / fast_pskip=0 / chroma_qp_offset=-2 / threads=6 / lookahead_threads=1 / sliced_threads=0 / nr=0 / decimate=0 / interlaced=0 / bluray_compat=0 / constrained_intra=0 / bframes=11 / b_pyramid=2 / b_adapt=2 / b_bias=0 / direct=3 / weightb=1 / open_gop=0 / weightp=2 / keyint=250 / keyint_min=23 / scenecut=40 / intra_refresh=0 / rc_lookahead=60 / rc=2pass / mbtree=0 / bitrate=1492 / ratetol=1.0 / qcomp=0.70 / qpmin=0 / qpmax=69 / qpstep=4 / cplxblur=20.0 / qblur=0.5 / vbv_maxrate=20000 / vbv_bufsize=20000 / nal_hrd=none / ip_ratio=1.35 / pb_ratio=1.25 / aq=2:0.80
Language : English
Default : Yes
Forced : No

Audio #1
ID : 2
Format : AC-3
Format/Info : Audio Coding 3
Format settings, Endianness : Big
Codec ID : A_AC3
Duration : 2 h 10 min
Bit rate mode : Constant
Bit rate : 192 kb/s
Channel(s) : 2 channels
Channel positions : Front: L R
Sampling rate : 48.0 kHz
Frame rate : 31.250 FPS (1536 SPF)
Bit depth : 16 bits
Compression mode : Lossy
Stream size : 180 MiB (9%)
Title : DD 2.0 @ 192 kbps - TET [DUB]
Language : Ukrainian
Service kind : Complete Main
Default : Yes
Forced : No

Audio #2
ID : 3
Format : AC-3
Format/Info : Audio Coding 3
Format settings, Endianness : Big
Codec ID : A_AC3
Duration : 2 h 10 min
Bit rate mode : Constant
Bit rate : 448 kb/s
Channel(s) : 6 channels
Channel positions : Front: L C R, Side: L R, LFE
Sampling rate : 48.0 kHz
Frame rate : 31.250 FPS (1536 SPF)
Bit depth : 16 bits
Compression mode : Lossy
Stream size : 420 MiB (21%)
Title : DD 5.1 @ 448 kbps - Original
Language : English
Service kind : Complete Main
Default : No
Forced : No

Text #1
ID : 4
Format : UTF-8
Codec ID : S_TEXT/UTF8
Codec ID/Info : UTF-8 Plain Text
Title : BD CEE
Language : Ukrainian
Default : No
Forced : No

Text #2
ID : 5
Format : UTF-8
Codec ID : S_TEXT/UTF8
Codec ID/Info : UTF-8 Plain Text
Title : Forced
Language : English
Default : No
Forced : No

Text #3
ID : 6
Format : UTF-8
Codec ID : S_TEXT/UTF8
Codec ID/Info : UTF-8 Plain Text
Title : Full
Language : English
Default : No
Forced : No

Text #4
ID : 7
Format : UTF-8
Codec ID : S_TEXT/UTF8
Codec ID/Info : UTF-8 Plain Text
Title : SDH
Language : English
Default : No
Forced : No

Text #5
ID : 8
Format : UTF-8
Codec ID : S_TEXT/UTF8
Codec ID/Info : UTF-8 Plain Text
Title : SDH-Colored
Language : English
Default : No
Forced : No

Menu
00:00:00.000 : en:(01)00:00:00:000
00:03:50.230 : en:(02)00:03:50:230
00:07:58.060 : en:(03)00:07:58:060
00:10:27.126 : en:(04)00:10:27:126
00:13:42.404 : en:(05)00:13:42:404
00:17:54.948 : en:(06)00:17:54:948
00:20:17.591 : en:(07)00:20:17:591
00:23:01.380 : en:(08)00:23:01:380
00:24:57.746 : en:(09)00:24:57:746
00:26:58.158 : en:(10)00:26:58:158
00:30:54.811 : en:(11)00:30:54:811
00:34:01.164 : en:(12)00:34:01:164
00:39:21.859 : en:(13)00:39:21:859
00:43:00.869 : en:(14)00:43:00:869
00:45:09.998 : en:(15)00:45:09:998
00:50:59.056 : en:(16)00:50:59:056
00:52:18.760 : en:(17)00:52:18:760
00:54:55.709 : en:(18)00:54:55:709
00:59:04.624 : en:(19)00:59:04:624
01:02:16.232 : en:(20)01:02:16:232
01:05:42.563 : en:(21)01:05:42:563
01:08:20.513 : en:(22)01:08:20:513
01:12:41.982 : en:(23)01:12:41:982
01:18:14.856 : en:(24)01:18:14:856
01:23:50.025 : en:(25)01:23:50:025
01:27:59.399 : en:(26)01:27:59:399
01:30:46.274 : en:(27)01:30:46:274
01:36:25.404 : en:(28)01:36:25:404
01:40:48.584 : en:(29)01:40:48:584
01:43:54.811 : en:(30)01:43:54:811
01:47:24.104 : en:(31)01:47:24:104
01:49:38.405 : en:(32)01:49:38:405
01:54:24.274 : en:(33)01:54:24:274
02:02:10.948 : en:(34)02:02:10:948
02:03:13.386 : en:(35)02:03:13:386
02:05:21.514 : en:(36)02:05:21:514
02:10:59.685 : en:(37)02:10:59:685
скриншот  скриншот  скриншот  
piratbit.org



Скачать Воровка книг через торрент http://i103.fastpic.ru/big/2018/0129/67/18ba97b708efd205afa245724e9c1b67.jpg Скачать фильм Воровка книг через торрент бесплантно в хорошем качестве В ролях : Софи Нелисс, Джеффри Раш, Эмили Уотсон, Роджер Аллам, Хайке Макач, Джулиан Леманн, Готард Ланге, Райнер Рейнерс, Керстен Блок, ... 5.5 10 2
Торрент: Зарегистрирован [2018-01-29 12:45] · скачан: 24 раз
Статус: √ проверено
Размер: 1.95 GB
Как cкачать? Как скачать Воровка книг через торрент | UTorrent

% Раздел Тема Автор DL S | L
Фильмы [HD 720p, 1080p] (Хороший звук DUB, MVO) [ 4.43 GB ] Воровка книг / The Book Thief [2013 военный BDRip 1080p] 2x + [AVO] killermax2013 Скачать
5 | 0
Фильмы с авторской озвучкой [ 2.18 GB ] Воровка книг / The Book Thief [2013 военный BDRip] [AVO] killermax2013 Скачать
1 | 0
Фильмы с авторской озвучкой [ 2.12 GB ] Воровка книг / The Book Thief [2013 военный HDRip Авторский одноголосый " Ю.Сербин"] coc900 Скачать
1 | 0
Фильмы 2013 [DVDrip, WEB-DLRip, HDrip] [ 2.96 GB ] Воровка книг / The Book Thief [2013 военный BDRip-AVC] DUB AVO msltel Скачать
1 | 0
Фильмы [HD 720p, 1080p] (Хороший звук DUB, MVO) [ 15.22 GB ] Воровка книг / The Book Thief [2013 военный BDRip 1080p] DUB AVO msltel Скачать
2 | 0
Фильмы [HD 720p, 1080p] (Хороший звук DUB, MVO) [ 4.77 GB ] Воровка книг / The Book Thief [2013 военный BDRip 720p] DUB AVO msltel Скачать
2 | 0
Фильмы [HD 720p, 1080p] (Хороший звук DUB, MVO) [ 5.84 GB ] Воровка книг / The Book Thief [2013 Германия военный BDRip 720p] + Original + Subs от R.G. PiratFilms Messa-fan Скачать
1 | 0

28-11-2019 20:33  

Отключить всю рекламу на сайте

    Дорогой пользователь! Огромная просьба, поблагодарите релизера, оцените раздачу и оставьте свои комментарий, если Вы скачали Воровка книг через торрент бесплатно! Внесите свою лепту в развитие PiratBit!
    Комментировать посты могут только пользователи прошедшие не сложную регистрацию
    Показать сообщения:    

    Воровка книг через торрент
    Скачать бесплатно Воровка книг
    Воровка книг скачать торрент
    Воровка книг смотреть онлайн
    Cкачать фильм Воровка книг бесплатно
    Воровка книг скачать торрент в хорошем качестве
    Воровка книг смотреть онлайн бесплатно в хорошем качестве


    Вы не можете начинать темы
    Вы не можете отвечать на сообщения
    Вы не можете редактировать свои сообщения
    Вы не можете удалять свои сообщения
    Вы не можете голосовать в опросах
    Вы не можете прикреплять файлы к сообщениям
    Вы можете скачивать файлы