2 сезон

iTunes

WEBRip

1

2 сезон

iTunes

1 сезон

1 сезон

RePack

30

Ultimate

ВАЖНО

ИГРА 18+

pack

RePack

MK11
pack

Легкие деньги

RePack

jed

RePack

fifa19

RePack

RDR2

RePack

NEED FOR SPEED™ PAYBACK

4 сезон

9 сезон

Бесстыжие 9 сезон

Все сериалы

все сериалы на PB.wtf

RePack

FAR CRY 5

Anonymous, добрый день, мы не успеваем собрать деньги на оплату серверов за февраль, помогите нам пожалуйста в это трудное время. В качестве благодарности мы отключим Вам всю рекламу на сайте (укажите свой ник в строку Ваше имя)!

×
  
Magnet ссылка

Земля картелей / Cartel Land (Мэтт Хейнеман) [2015, документальный, боевик, драма, военный, BDRip 720p] [Ukr MVO] (студия Цікава ідея) piratbit.org

Земля картелей через торрент piratbit.org

Размер: 2.93 GB | Добавлен: 3 года назад | Торрент скачан:32 раза
Скачать  

06-02-2018 16:03 Земля картелей Скачать торрент  

Земля картелей / Cartel Land
Год выхода: 2015
Жанр: документальный, боевик, драма, военный
Выпущено: Мексика, США
Продолжительность: 01:40:48
Перевод: Украинский (профессиональный, многоголосный) [студия Цікава ідея]
Субтитры: английские

Режиссер: Мэтт Хейнеман

О фильме:
Это документальный вестерн, действие которого разворачивается в 21 веке. Две группы виджиланте по обе стороны границы сражаются со злобными мексиканскими наркокартелями. Имея беспрецедентный доступ к материалам, авторы фильма поднимают серьёзнейшие проблемы беззакония, краха порядка, права граждан прибегать к оружию для защиты от насилия.



Файл
Качество: BDRip 720p
Формат: MKV
Видео: AVC, 1280x544, 3256 кб/с
Звук: AC3, 48 kHz, 6 ch, 448 kbps - Ukr MVO
Звук: AC3, 48 kHz, 6 ch, 448 kbps - Spanish

Цитата:

Переведено и озвучено в рамках проекта Hurtom

General
Unique ID : 187193697779838939357939687045984579055 (0x8CD431DE1DC982B39EF13EE901466DEF)
Complete name : E:\INTERNET\Cartel Land (2015) [ukr,spa] BDRip 720p [Hurtom].mkv
Format : Matroska
Format version : Version 4 / Version 2
File size : 2.93 GiB
Duration : 1 h 40 min
Overall bit rate : 4 155 kb/s
Movie name : Земля картелів / Cartel Land (2015) [Hurtom]
Encoded date : UTC 2017-02-26 17:59:45
Writing application : mkvmerge v9.9.0 ('Pick Up') 64bit
Writing library : libebml v1.3.4 + libmatroska v1.4.5
Attachments : особлива подяка.txt

Video
ID : 1
Format : AVC
Format/Info : Advanced Video Codec
Format profile : High@L4.1
Format settings : CABAC / 8 Ref Frames
Format settings, CABAC : Yes
Format settings, RefFrames : 8 frames
Codec ID : V_MPEG4/ISO/AVC
Duration : 1 h 40 min
Bit rate : 3 176 kb/s
Width : 1 280 pixels
Height : 544 pixels
Display aspect ratio : 2.35:1
Frame rate mode : Constant
Frame rate : 24.000 FPS
Color space : YUV
Chroma subsampling : 4:2:0
Bit depth : 8 bits
Scan type : Progressive
Bits/(Pixel*Frame) : 0.190
Stream size : 2.24 GiB (76%)
Writing library : x264 core 148 r2744 b97ae06
Encoding settings : cabac=1 / ref=8 / deblock=1:-1:-1 / analyse=0x3:0x133 / me=umh / subme=10 / psy=1 / psy_rd=1.00:0.15 / mixed_ref=1 / me_range=32 / chroma_me=1 / trellis=2 / 8x8dct=1 / cqm=0 / deadzone=21,11 / fast_pskip=0 / chroma_qp_offset=-3 / threads=12 / lookahead_threads=1 / sliced_threads=0 / nr=0 / decimate=1 / interlaced=0 / bluray_compat=0 / constrained_intra=0 / bframes=3 / b_pyramid=2 / b_adapt=2 / b_bias=0 / direct=3 / weightb=1 / open_gop=0 / weightp=2 / keyint=240 / keyint_min=23 / scenecut=40 / intra_refresh=0 / rc_lookahead=60 / rc=crf / mbtree=1 / crf=19.0 / qcomp=0.60 / qpmin=0 / qpmax=69 / qpstep=4 / vbv_maxrate=31250 / vbv_bufsize=31250 / crf_max=0.0 / nal_hrd=none / filler=0 / ip_ratio=1.40 / aq=1:1.00
Default : Yes
Forced : No

Audio #1
ID : 2
Format : AC-3
Format/Info : Audio Coding 3
Format settings, Endianness : Big
Codec ID : A_AC3
Duration : 1 h 40 min
Bit rate mode : Constant
Bit rate : 448 kb/s
Channel(s) : 6 channels
Channel positions : Front: L C R, Side: L R, LFE
Sampling rate : 48.0 kHz
Frame rate : 31.250 FPS (1536 SPF)
Bit depth : 16 bits
Compression mode : Lossy
Stream size : 323 MiB (11%)
Title : Озвучено на замовлення hurtom.com
Language : Ukrainian
Service kind : Complete Main
Default : Yes
Forced : No

Audio #2
ID : 3
Format : AC-3
Format/Info : Audio Coding 3
Format settings, Endianness : Big
Codec ID : A_AC3
Duration : 1 h 40 min
Bit rate mode : Constant
Bit rate : 448 kb/s
Channel(s) : 6 channels
Channel positions : Front: L C R, Side: L R, LFE
Sampling rate : 48.0 kHz
Frame rate : 31.250 FPS (1536 SPF)
Bit depth : 16 bits
Compression mode : Lossy
Stream size : 323 MiB (11%)
Title : Original
Language : Spanish
Service kind : Complete Main
Default : No
Forced : No

Text
ID : 4
Format : UTF-8
Codec ID : S_TEXT/UTF8
Codec ID/Info : UTF-8 Plain Text
Title : Original
Language : English
Default : Yes
Forced : No
скриншот  скриншот  скриншот  
piratbit.org



Скачать Земля картелей через торрент http://i102.fastpic.ru/big/2018/0206/cc/b397e4aa551518fa101214f934b2aecc.jpg Скачать фильм Земля картелей через торрент бесплантно в хорошем качестве О фильме: Это документальный вестерн, действие которого разворачивается в 21 веке. Две группы виджиланте по обе стороны границы сражаются ... 7.5 10 2
Торрент: Зарегистрирован [2018-02-06 16:03] · скачан: 32 раз
Статус: √ проверено
Размер: 2.93 GB
Как cкачать? Как скачать Земля картелей через торрент | UTorrent

% Раздел Тема Автор DL S | L
Документальные фильмы и телепередачи [ 10.44 GB ] Земля картелей / Cartel Land [2015 документальный BDRip 1080p VO] Ворон Скачать
1 | 0
Документальные фильмы и телепередачи [ 1.37 GB ] Земля картелей / Cartel Land [2015 документальный HDRip Любительский [Sunshine Studio] Ворон Скачать
1 | 0

28-11-2019 20:33  

Отключить всю рекламу на сайте

    Дорогой пользователь! Огромная просьба, поблагодарите релизера, оцените раздачу и оставьте свои комментарий, если Вы скачали Земля картелей через торрент бесплатно! Внесите свою лепту в развитие PiratBit!
    Комментировать посты могут только пользователи прошедшие не сложную регистрацию
    Показать сообщения:    

    Земля картелей через торрент
    Скачать бесплатно Земля картелей
    Земля картелей скачать торрент
    Земля картелей смотреть онлайн
    Cкачать фильм Земля картелей бесплатно
    Земля картелей скачать торрент в хорошем качестве
    Земля картелей смотреть онлайн бесплатно в хорошем качестве


    Вы не можете начинать темы
    Вы не можете отвечать на сообщения
    Вы не можете редактировать свои сообщения
    Вы не можете удалять свои сообщения
    Вы не можете голосовать в опросах
    Вы не можете прикреплять файлы к сообщениям
    Вы можете скачивать файлы