Лицензия

MVO

1

1 сезон

Лицензия

Лицензия

13

MVO

1 сезон

Deluxe Edition

pack

Рекомендуем

30

Repack

ВАЖНО

ВАЖНО

Ghostwire

RePack

jed

RePack

fifa19

RePack

RDR2

RePack

NEED FOR SPEED™ PAYBACK

RePack

Кинопоиск HD

 Острые козырьки 6 сезон

6 сезон

FAR CRY 6

RePack

Лицензия

MVO

1

1 сезон

1 сезон

Лицензия

  

Весенний призыв (Павел Любимов) [1976, СССР, драма, DVDRip от AVP Studio]

Весенний призыв через торрент piratbit.org

Размер: 745 MB | Добавлен: 4 года 7 мес. назад | Торрент скачан:18 раз
Смотреть онлайн Весенний призыв | Скачать   

12-02-2018 07:59 Весенний призыв Скачать торрент  

Весенний призыв
Страна: СССР
Производство: Киностудия им. М. Горького

Жанр: драма
Год выпуска: 1976
Продолжительность: 01:29:22

Перевод: Не требуется
Cубтитры: нет
Оригинальная аудиодорожка: русский

Режиссер: Павел Любимов

В ролях:
Александр Фатюшин, Игорь Костолевский, Анна Каменкова, Александр Постников, Виктор Проскурин, Борис Морозов...
Об актёрах подробней

Описание:
Научить призывников азам солдатской науки поручили сержанту Карпенко. И не ошиблись. Его прирожденные педагогические способности и опыт победили недоверчивость, ироничность и хитрость новобранцев.

Источник: DVD5 R5
Качество видео: DVDRip
Формат видео: AVI

Видео: 704x352 (2,000:1), 25 fps, XviD ~ 965 kbps avg, 0.156 bit/pixel
Аудио: 48 kHz, Dolby Digital AC3 2.0, 192 kbps

Раздача от:
Общее
Полное имя : Vesenniy.prizyv.1976.DVDRip_[New-team]_by_AVP_Studio.avi
Формат : AVI
Формат/Информация : Audio Video Interleave
Размер файла : 745 Мбайт
Продолжительность : 1 ч. 29 м.
Общий поток : 1166 Кбит/сек
Программа кодирования : VirtualDubMod 1.5.10.3 | www.virtualdub-fr.org || (build 2550/release)
Библиотека кодирования : VirtualDubMod build 2550/release

Видео
Идентификатор : 0
Формат : MPEG-4 Visual
Профиль формата : Advanced Simple@L5
Настройки формата : BVOP1 / Custom Matrix
Параметр BVOP формата : 1
Параметр QPel формата : Нет
Параметр GMC формата : Без точки перехода
Параметр матрицы формата : Выборочная
Идентификатор кодека : XVID
Идентификатор кодека/Подсказка : XviD
Продолжительность : 1 ч. 29 м.
Битрейт : 965 Кбит/сек
Ширина : 704 пикселя
Высота : 352 пикселя
Соотношение сторон : 2,000
Частота кадров : 25,000 кадров/сек
Цветовое пространство : YUV
Субдискретизация насыщенности : 4:2:0
Битовая глубина : 8 бит
Тип развёртки : Прогрессивная
Метод сжатия : С потерями
Бит/(Пиксели*Кадры) : 0.156
Размер потока : 617 Мбайт (83%)
Библиотека кодирования : XviD 73

Аудио
Идентификатор : 1
Формат : AC-3
Формат/Информация : Audio Coding 3
Идентификатор кодека : 2000
Продолжительность : 1 ч. 29 м.
Вид битрейта : Постоянный
Битрейт : 192 Кбит/сек
Каналы : 2 канала
Расположение каналов : Front: L R
Частота : 48,0 КГц
Частота кадров : 31,250 кадров/сек (1536 SPF)
Битовая глубина : 16 бит
Метод сжатия : С потерями
Размер потока : 123 Мбайт (16%)
Выравнивание : Разделение по промежуткам
Продолжительность промежутка : 40 мс. (1,00 видеокадр)
Время предзагрузки промежутка : 500 мс



Скачать Весенний призыв через торрент http://i99.fastpic.ru/big/2018/0210/53/05596755785b0420570fd18ca3e6a053.png Скачать, смотреть онлайн Весенний призыв бесплантно в хорошем качестве Описание:Научить призывников азам солдатской науки поручили сержанту Карпенко. И не ошиблись. Его прирожденные педагогические способности и ... 5 10 1
Info! Золотая раздача, скачанное не засчитывается.
Торрент: Зарегистрирован [2018-02-12 07:59] · скачан: 18 раз
Статус: √ проверено
Размер: 745 MB
Как cкачать? Как скачать Весенний призыв через торрент | UTorrent

% Раздел Тема Автор DL S | L
Кино СССР [ 1.09 GB ] Весенний призыв | | DVDRip-AVC от AVP Studio AVP Studio Скачать
1 | 0

28-11-2019 20:33  

Отключить вcю реклaмy на сайте

    Дорогой пользователь! Огромная просьба, поблагодарите релизера, оцените раздачу и оставьте свои комментарий, если Вы скачали Весенний призыв через торрент бесплатно!!
    Комментировать посты могут только пользователи прошедшие не сложную регистрацию
    Показать сообщения:    


    Весенний призыв через торрент
    Скачать бесплатно Весенний призыв
    Весенний призыв скачать торрент
    Весенний призыв смотреть онлайн
    Cкачать фильм Весенний призыв бесплатно
    Весенний призыв скачать торрент в хорошем качестве
    Весенний призыв смотреть онлайн бесплатно в хорошем качестве
    Вы не можете начинать темы
    Вы не можете отвечать на сообщения
    Вы не можете редактировать свои сообщения
    Вы не можете удалять свои сообщения
    Вы не можете голосовать в опросах
    Вы не можете прикреплять файлы к сообщениям
    Вы можете скачивать файлы