2 сезон

iTunes

WEBRip

1

2 сезон

iTunes

1 сезон

1 сезон

RePack

30

Ultimate

ВАЖНО

ИГРА 18+

pack

RePack

MK11
pack

Легкие деньги

RePack

jed

RePack

fifa19

RePack

RDR2

RePack

NEED FOR SPEED™ PAYBACK

4 сезон

9 сезон

Бесстыжие 9 сезон

Все сериалы

все сериалы на PB.wtf

RePack

FAR CRY 5

Anonymous, доброй ночи, мы не успеваем собрать деньги на оплату серверов за февраль, помогите нам пожалуйста в это трудное время. В качестве благодарности мы отключим Вам всю рекламу на сайте (укажите свой ник в строку Ваше имя)!

×
  
Magnet ссылка

Темные времена / Darkest Hour (Джо Райт) [2017, драма, военный, BDRip 720p] [Ukr DUB] piratbit.org

Темные времена через торрент piratbit.org

Размер: 4.54 GB | Добавлен: 3 года назад | Торрент скачан:138 раз
Скачать  

16-02-2018 12:04 Темные времена Скачать торрент  

Темные времена / Darkest Hour
Год выхода : 2017
Жанр : драма, военный
Страна : Великобритания
Продолжительность : 02:04:12
Перевод : Украинский (дублированный)
Субтитры : Украинские, английские

Режиссер : Джо Райт

В главных ролях: Лили Джеймс, Гари Олдман, Бен Мендельсон, Кристин Скотт Томас, Стивен Диллэйн, Пип Торренс, Сэмюэл Уэст, Рональд Пикап, Ханна Стил, Эдриан Роулинз

Описание: История о первом и решающем шаге Уинстона Черчилля на посту премьер-министра Великобритании, получившего Влacть при чрезвычайных обстоятельствах. Успехи нацистской армии взбудоражили британское сообщество, но вопреки давлению и страху других политиков Черчилль отказывается идти на соглашение с Гитлером.



Файл
Качество : BDRip 720p
Формат видео : MKV
Видео : 1280 x 688 , 23.976 fps, ~4368 kbps avg
Звук : 48 kHz, AC3 Dolby Digital, 2 ch, ~192 kbps - Ukr DUB
Звук : 48 kHz, AC3 Dolby Digital, 6 ch, ~640 kbps - Eng

Релиз --
General
Unique ID : 163903440959683652869356730976626782865 (0x7B4EA78CDE642152715A94F2BF2BB291)
Complete name : F:\Darkest Hour (2017) BDRip 720p [Ukr(Mic)Eng Sub Eng].mkv
Format : Matroska
Format version : Version 4 / Version 2
File size : 4.54 GiB
Duration : 2 h 4 min
Overall bit rate : 5 202 kb/s
Movie name : Darkest Hour (2017) by UKR.TO
Encoded date : UTC 2018-02-14 23:15:25
Writing application : mkvmerge v19.0.0 ('Brave Captain') 32-bit
Writing library : libebml v1.3.5 + libmatroska v1.4.8

Video
ID : 1
Format : AVC
Format/Info : Advanced Video Codec
Format profile : High@L4.1
Format settings : CABAC / 5 Ref Frames
Format settings, CABAC : Yes
Format settings, RefFrames : 5 frames
Codec ID : V_MPEG4/ISO/AVC
Duration : 2 h 4 min
Bit rate : 4 368 kb/s
Width : 1 280 pixels
Height : 688 pixels
Display aspect ratio : 1.85:1
Frame rate mode : Constant
Frame rate : 23.976 (24000/1001) FPS
Color space : YUV
Chroma subsampling : 4:2:0
Bit depth : 8 bits
Scan type : Progressive
Bits/(Pixel*Frame) : 0.207
Stream size : 3.72 GiB (82%)
Writing library : x264 core 155 r2901 7d0ff22
Encoding settings : cabac=1 / ref=5 / deblock=1:0:0 / analyse=0x3:0x133 / me=umh / subme=7 / psy=1 / psy_rd=1.00:0.00 / mixed_ref=1 / me_range=16 / chroma_me=1 / trellis=1 / 8x8dct=1 / cqm=0 / deadzone=21,11 / fast_pskip=0 / chroma_qp_offset=-2 / threads=21 / lookahead_threads=3 / sliced_threads=0 / nr=0 / decimate=1 / interlaced=0 / bluray_compat=0 / constrained_intra=0 / bframes=3 / b_pyramid=2 / b_adapt=1 / b_bias=0 / direct=1 / weightb=1 / open_gop=0 / weightp=2 / keyint=250 / keyint_min=23 / scenecut=40 / intra_refresh=0 / rc_lookahead=40 / rc=2pass / mbtree=1 / bitrate=4368 / ratetol=1.0 / qcomp=0.60 / qpmin=0 / qpmax=69 / qpstep=4 / cplxblur=20.0 / qblur=0.5 / ip_ratio=1.40 / aq=1:1.00
Language : English
Default : Yes
Forced : No

Audio #1
ID : 2
Format : AC-3
Format/Info : Audio Coding 3
Format settings, Endianness : Big
Codec ID : A_AC3
Duration : 2 h 4 min
Bit rate mode : Constant
Bit rate : 192 kb/s
Channel(s) : 2 channels
Channel positions : Front: L R
Sampling rate : 48.0 kHz
Frame rate : 31.250 FPS (1536 SPF)
Bit depth : 16 bits
Compression mode : Lossy
Stream size : 172 MiB (4%)
Title : Ukr
Language : Ukrainian
Service kind : Complete Main
Default : Yes
Forced : No

Audio #2
ID : 3
Format : AC-3
Format/Info : Audio Coding 3
Format settings, Endianness : Big
Codec ID : A_AC3
Duration : 2 h 4 min
Bit rate mode : Constant
Bit rate : 640 kb/s
Channel(s) : 6 channels
Channel positions : Front: L C R, Side: L R, LFE
Sampling rate : 48.0 kHz
Frame rate : 31.250 FPS (1536 SPF)
Bit depth : 16 bits
Compression mode : Lossy
Stream size : 572 MiB (12%)
Title : Eng
Language : English
Service kind : Complete Main
Default : No
Forced : No

Text #1
ID : 4
Format : UTF-8
Codec ID : S_TEXT/UTF8
Codec ID/Info : UTF-8 Plain Text
Title : Ukr (Forced)
Language : Ukrainian
Default : Yes
Forced : No

Text #2
ID : 5
Format : UTF-8
Codec ID : S_TEXT/UTF8
Codec ID/Info : UTF-8 Plain Text
Title : Eng (Full)
Language : English
Default : No
Forced : No
piratbit.org



Скачать Темные времена через торрент http://i100.fastpic.ru/big/2018/0216/a7/2443b7bf3a8fed794ce848c89a95e5a7.jpg Скачать фильм Темные времена через торрент бесплантно в хорошем качестве Описание: История о первом и решающем шаге Уинстона Черчилля на посту премьер-министра Великобритании, получившего Влacть при чрезвычайных ... 7.4 10 7
Торрент: Зарегистрирован [2018-02-16 12:04] · скачан: 138 раз
Статус: T временная
Размер: 4.54 GB
Как cкачать? Как скачать Темные времена через торрент | UTorrent

% Раздел Тема Автор DL S | L
Фильмы 2017 [DVDrip, WEB-DLRip, HDrip] (DUB, MVO) [ 1.46 GB ] Темные времена / Darkest Hour [2017 военный BDRip] - [] Twi7ter Скачать
1 | 0
Фильмы (Blu-ray, BD-Remux, HDDVD) [ 32.25 GB ] Темные времена / Darkest Hour [2017 военный BD Remux 1080p] DUB [] bober100 Скачать
1 | 0
Фильмы [HD 720p, 1080p] (Хороший звук DUB, MVO) [ 14.32 GB ] Темные времена / Darkest Hour [2017 военный BDRip 1080p] DUB [] bober100 Скачать
1 | 0
Ultra HD (UHD: 2K, 4K, 8K) — видео сверхвысокой чёткости [ 51.71 GB ] Темные времена / Darkest Hour [2017 военный UHD BDRemux 2160p] DUB +DUB [] bober100 Скачать
1 | 0
Фильмы 2017 [DVDrip, WEB-DLRip, HDrip] (DUB, MVO) [ 754 MB ] Темные времена / Darkest Hour [2017 военный биография история HDRip "BD EUR"] coc900 Скачать
1 | 0
Фильмы (Blu-ray, BD-Remux, HDDVD) [ 34.15 GB ] Темные времена / Darkest Hour [2017 военный Blu-ray CEE 1080p] DUB [] bober100 Скачать
1 | 0
Фильмы 2017 [DVDrip, WEB-DLRip, HDrip] (DUB, MVO) [ 2.44 GB ] Темные времена / Darkest Hour [2017 военный BDRip-AVC] DUB [] bober100 Скачать
1 | 0

28-11-2019 20:33  

Отключить всю рекламу на сайте

    Дорогой пользователь! Огромная просьба, поблагодарите релизера, оцените раздачу и оставьте свои комментарий, если Вы скачали Темные времена через торрент бесплатно! Внесите свою лепту в развитие PiratBit!
    Комментировать посты могут только пользователи прошедшие не сложную регистрацию
    Показать сообщения:    

    Темные времена через торрент
    Скачать бесплатно Темные времена
    Темные времена скачать торрент
    Темные времена смотреть онлайн
    Cкачать фильм Темные времена бесплатно
    Темные времена скачать торрент в хорошем качестве
    Темные времена смотреть онлайн бесплатно в хорошем качестве


    Вы не можете начинать темы
    Вы не можете отвечать на сообщения
    Вы не можете редактировать свои сообщения
    Вы не можете удалять свои сообщения
    Вы не можете голосовать в опросах
    Вы не можете прикреплять файлы к сообщениям
    Вы можете скачивать файлы