1 сезон

1 сезон

iTunes

1

iTunes

Кинопоиск HD

iTunes

13

1 сезон

RePack

30

Deluxe

ВАЖНО

ИГРА 18+

pack

RePack

MK11
pack

Легкие деньги

RePack

jed

RePack

fifa19

RePack

RDR2

RePack

NEED FOR SPEED™ PAYBACK

4 сезон

9 сезон

Бесстыжие 9 сезон

Все сериалы

все сериалы на PB.wtf

RePack

FAR CRY 5
  
Magnet ссылка

Мою жену зовут Морис / Ma femme... s'appelle Maurice (Жан-Мари Пуаре) [2002 г., Комедия, DVDRip-AVC, Профессиональный (многоголосый)] от ExKinoRay piratbit.org

Мою жену зовут Морис через торрент piratbit.org

Размер: 2.38 GB | Добавлен: 3 года 2 мес. назад | Торрент скачан:4 раза
Скачать  

16-02-2018 20:38 Мою жену зовут Морис Скачать торрент  

Мою жену зовут Морис / Ma femme... s'appelle Maurice
Год выпуска: 2002
Страна: Франция, Германия
Жанр: Комедия
Продолжительность: 01:37:31
Перевод: Профессиональный (многоголосый)
Субтитры: Русские

Режиссер: Жан-Мари Пуаре

Бюджет: €19 000 000
Премьера в мире: 25 сентября 2002

rating

В ролях: Элис Эванс, Режи Лапале, Филипп Шевалье, Гёц Отто, Анемон, Мартин Ламотт, Вирджиния Лемойн, Ги Маршан, Юрбен Канселье, Стефан Одран

Описание: Мечта Эмманюэль близка к осуществлению: наконец-то она нашла достаточно богатого мужчину, который в состоянии оплачивать все ее потребности. Однако, отправившись вместе с ним в Венецию, она узнаёт, что Жорж женат, причем именно жена распоряжается всеми его деньгами. Решив отомстить, Эмманюэль планирует рассказать Марион, жене Жоржа, об их связи. Оказавшись в совершенно отчаянном положении, Жорж делает все, чтобы помешать встрече любовницы с женой — вплоть до того, что находит соучастника для этого практически невыполнимого дела. Он просит своего знакомого Мориса изобразить из себя Марион, чтобы как следует напугать Эмманюэль. С этого и начинается серия самых комических и нелепых происшествий, тем более, что после появления на «месте происшествия» Джонни — крайне ревнивого дружка Эмманюэль, Жоржу также приходится облачиться в женское платье…

Качество: DVDRip-AVC
Формат: MKV
Видео кодек: MPEG4
Аудио кодек: AC3
Видео: MPEG-4 AVC, 2600 Кбит/с, 714x428@1014x428, 25 кадров/сек
Аудио#1: Русский (AC3, 6 ch, 448 Кбит/с, 48 КГц)
Аудио#2: Французский (AC3, 6 ch, 448 Кбит/с, 48 КГц)
Релиз от:




raw [info]: 714x428p 64:45 @ 25/1 fps (cfr)
x264 [info]: using SAR=64/45
x264 [info]: using cpu capabilities: MMX2 SSE2Fast LZCNT
x264 [info]: profile High, level 4.1
x264 [info]: frame I:2326 Avg QP:16.27 size: 62442
x264 [info]: frame P:36605 Avg QP:18.96 size: 24508
x264 [info]: frame B:107358 Avg QP:20.93 size: 8002
x264 [info]: consecutive B-frames: 4.1% 4.9% 17.1% 21.6% 10.3% 40.4% 1.2% 0.1% 0.1% 0.0% 0.0% 0.0% 0.0% 0.0% 0.0% 0.0% 0.2%
-----
Общее
Уникальный идентификатор : 195209243180725541739337179658151957738 (0x92DBEEC487657E7CA8496461586E94EA)
Полное имя : D:\ExKinoRay\Ma.femme.3OBYT.Maurice.2002.DVDRip-AVC.ExKinoRay.mkv
Формат : Matroska
Версия формата : Version 2
Размер файла : 2,38 Гбайт
Продолжительность : 1 ч. 37 м.
Общий поток : 3498 Кбит/сек
Дата кодирования : UTC 2018-02-16 13:31:35
Программа кодирования : mkvmerge v7.8.0 ('River Man') 32bit built on Apr 3 2015 12:11:22
Библиотека кодирования : libebml v1.3.1 + libmatroska v1.4.2

Видео
Идентификатор : 1
Формат : AVC
Формат/Информация : Advanced Video Codec
Профиль формата : High@L4.1
Параметр CABAC формата : Да
Параметр ReFrames формата : 14 кадров
Идентификатор кодека : V_MPEG4/ISO/AVC
Продолжительность : 1 ч. 37 м.
Битрейт : 2600 Кбит/сек
Ширина : 714 пикселей
Высота : 428 пикселей
Соотношение сторон : 2,40:1
Соотношение сторон в оригинале : 2,40:1
Режим частоты кадров : Постоянный
Частота кадров : 25,000 кадров/сек
Цветовое пространство : YUV
Субдискретизация насыщенности : 4:2:0
Битовая глубина : 8 бит
Тип развёртки : Прогрессивная
Бит/(Пиксели*Кадры) : 0.340
Размер потока : 1,72 Гбайт (72%)
Библиотека кодирования : x264 core 148 r2638 7599210
Настройки программы : cabac=1 / ref=14 / deblock=1:-2:-2 / analyse=0x3:0x133 / me=umh / subme=10 / psy=1 / psy_rd=1.05:0.15 / mixed_ref=1 / me_range=32 / chroma_me=1 / trellis=2 / 8x8dct=1 / cqm=0 / deadzone=21,11 / fast_pskip=0 / chroma_qp_offset=-3 / threads=4 / lookahead_threads=1 / sliced_threads=0 / nr=0 / decimate=0 / interlaced=0 / bluray_compat=0 / constrained_intra=0 / bframes=16 / b_pyramid=2 / b_adapt=2 / b_bias=0 / direct=3 / weightb=1 / open_gop=0 / weightp=2 / keyint=250 / keyint_min=25 / scenecut=40 / intra_refresh=0 / rc=2pass / mbtree=0 / bitrate=2600 / ratetol=1.0 / qcomp=0.60 / qpmin=0 / qpmax=69 / qpstep=4 / cplxblur=20.0 / qblur=0.5 / ip_ratio=1.40 / pb_ratio=1.30 / aq=1:1.00
Язык : English
Default : Да
Forced : Нет
Цветовой диапазон : Limited
Основные цвета : BT.601 NTSC
Характеристики трансфера : BT.601
Коэффициенты матрицы : BT.601

Аудио #1
Идентификатор : 2
Формат : AC-3
Формат/Информация : Audio Coding 3
Расширение режима : CM (complete main)
Параметр Endianness формата : Big
Идентификатор кодека : A_AC3
Продолжительность : 1 ч. 37 м.
Вид битрейта : Постоянный
Битрейт : 448 Кбит/сек
Каналы : 6 каналов
Расположение каналов : Front: L C R, Side: L R, LFE
Частота : 48,0 КГц
Частота кадров : 31,250 кадров/сек (1536 spf)
Метод сжатия : С потерями
Размер потока : 313 Мбайт (13%)
Язык : Russian
Default : Да
Forced : Нет

Аудио #2
Идентификатор : 3
Формат : AC-3
Формат/Информация : Audio Coding 3
Расширение режима : CM (complete main)
Параметр Endianness формата : Big
Идентификатор кодека : A_AC3
Продолжительность : 1 ч. 37 м.
Вид битрейта : Постоянный
Битрейт : 448 Кбит/сек
Каналы : 6 каналов
Расположение каналов : Front: L C R, Side: L R, LFE
Частота : 48,0 КГц
Частота кадров : 31,250 кадров/сек (1536 spf)
Метод сжатия : С потерями
Размер потока : 313 Мбайт (13%)
Язык : French
Default : Нет
Forced : Нет

Текст
Идентификатор : 4
Формат : UTF-8
Идентификатор кодека : S_TEXT/UTF8
Идентификатор кодека/Информация : UTF-8 Plain Text
Язык : Russian
Default : Да
Forced : Нет

piratbit.org



Скачать Мою жену зовут Морис через торрент http://c.radikal.ru/c10/1802/0e/f828d6507548.jpg Скачать фильм Мою жену зовут Морис через торрент бесплантно в хорошем качестве Описание: Мечта Эмманюэль близка к осуществлению: наконец-то она нашла достаточно богатого мужчину, который в состоянии оплачивать все ее ... 10 10 1
Info! Золотая раздача, скачанное не засчитывается.
Торрент: Зарегистрирован [2018-02-16 20:38] · скачан: 4 раз
Статус: √ проверено
Размер: 2.38 GB
Как cкачать? Как скачать Мою жену зовут Морис через торрент | UTorrent

28-11-2019 20:33  

Отключить всю рекламу на сайте

16-02-2018 23:01 Мою жену зовут Морис Скачать торрент  

Топик был перенесен из форума Оформление раздач (Кино, Видео и ТВ) в форум Фильмы 2001-2005


bober100piratbit.org



    Дорогой пользователь! Огромная просьба, поблагодарите релизера, оцените раздачу и оставьте свои комментарий, если Вы скачали Мою жену зовут Морис через торрент бесплатно! Внесите свою лепту в развитие PiratBit!
    Комментировать посты могут только пользователи прошедшие не сложную регистрацию
    Показать сообщения:    

    Мою жену зовут Морис через торрент
    Скачать бесплатно Мою жену зовут Морис
    Мою жену зовут Морис скачать торрент
    Мою жену зовут Морис смотреть онлайн
    Cкачать фильм Мою жену зовут Морис бесплатно
    Мою жену зовут Морис скачать торрент в хорошем качестве
    Мою жену зовут Морис смотреть онлайн бесплатно в хорошем качестве


    Вы не можете начинать темы
    Вы не можете отвечать на сообщения
    Вы не можете редактировать свои сообщения
    Вы не можете удалять свои сообщения
    Вы не можете голосовать в опросах
    Вы не можете прикреплять файлы к сообщениям
    Вы можете скачивать файлы