Лицензия

MVO

1

1 сезон

Лицензия

Лицензия

13

MVO

1 сезон

Deluxe Edition

pack

Рекомендуем

30

Repack

ВАЖНО

ВАЖНО

Ghostwire

RePack

jed

RePack

fifa19

RePack

RDR2

RePack

NEED FOR SPEED™ PAYBACK

RePack

Кинопоиск HD

 Острые козырьки 6 сезон

6 сезон

FAR CRY 6

RePack

Лицензия

MVO

1

1 сезон

1 сезон

Лицензия

  

Простая история (Юрий Егоров) [1960, СССР, драма, мелодрама, WEB-DLRip от AVP Studio]

Простая история через торрент piratbit.org

Размер: 1.09 GB | Добавлен: 4 года 7 мес. назад | Торрент скачан:26 раз
Смотреть онлайн Простая история | Скачать   

19-02-2018 07:31 Простая история Скачать торрент  

Простая история
Страна: СССР
Производство: Киностудия им. М. Горького

Жанр: драма, мелодрама
Год выпуска: 1960
Продолжительность: 01:24:24

Перевод: Не требуется
Cубтитры: нет
Оригинальная аудиодорожка: русский

Режиссер: Юрий Егоров

В ролях:
Нонна Мордюкова, Михаил Ульянов, Даниил Ильченко, Валентина Владимирова, Василий Шукшин, Ирина Мурзаева, Алексей Миронов, Борис Юрченко...
Об актёрах подробней

Описание:
Женщина, потеряв на войне мужа, посвятила свою жизнь колхозу. За прямоту и бескомпромиссность нрава многие невзлюбили Александру Потапову (Нонна Мордюкова), однако выбрали председателем колхоза. Нелегко ей было налаживать развалившееся хозяйство, заставить работать тех, кто привык бездельничать. Похаживал к ней раньше молодой мужик Иван Лыков (Василий Шукшин), так теперь прогнала его Саша - негоже председателю мелкие шашни заводить. Крепко помогал ей секретарь райкома Данилов (Михаил Ульянов). Александре нравился Данилов, этот умный, энергичный человек. Неожиданная любовь к секретарю райкома сделала ее жизнь и счастливой, и трудной.

Источник: WEB-DL 720p
Качество видео: WEB-DLRip
Формат видео: AVI

Видео: 720x352 (2,045:1), 30,000 fps, XviD ~ 1645 kbps avg, 0.216 bit/pixel
Аудио: 48 kHz, Dolby Digital AC3 2.0, 192 kbps

Раздача от:
Общее
Полное имя : Prostaya.istoriya.1960.WEB-DLRip_[New-team]_by_AVP_Studio.avi
Формат : AVI
Формат/Информация : Audio Video Interleave
Размер файла : 1,09 Гбайт
Продолжительность : 1 ч. 24 м.
Общий поток : 1849 Кбит/сек
Программа кодирования : VirtualDubMod 1.5.10.3 | www.virtualdub-fr.org || (build 2550/release)
Библиотека кодирования : VirtualDubMod build 2550/release

Видео
Идентификатор : 0
Формат : MPEG-4 Visual
Профиль формата : Advanced Simple@L5
Настройки формата : BVOP1 / Custom Matrix
Параметр BVOP формата : 1
Параметр QPel формата : Нет
Параметр GMC формата : Без точки перехода
Параметр матрицы формата : Выборочная
Идентификатор кодека : XVID
Идентификатор кодека/Подсказка : XviD
Продолжительность : 1 ч. 24 м.
Битрейт : 1645 Кбит/сек
Ширина : 720 пикселей
Высота : 352 пикселя
Соотношение сторон : 2,045
Частота кадров : 30,000 кадров/сек
Цветовое пространство : YUV
Субдискретизация насыщенности : 4:2:0
Битовая глубина : 8 бит
Тип развёртки : Прогрессивная
Метод сжатия : С потерями
Бит/(Пиксели*Кадры) : 0.216
Размер потока : 993 Мбайт (89%)
Библиотека кодирования : XviD 73

Аудио
Идентификатор : 1
Формат : AC-3
Формат/Информация : Audio Coding 3
Идентификатор кодека : 2000
Продолжительность : 1 ч. 24 м.
Вид битрейта : Постоянный
Битрейт : 192 Кбит/сек
Каналы : 2 канала
Расположение каналов : Front: L R
Частота : 48,0 КГц
Частота кадров : 31,250 кадров/сек (1536 SPF)
Битовая глубина : 16 бит
Метод сжатия : С потерями
Размер потока : 116 Мбайт (10%)
Выравнивание : Разделение по промежуткам
Продолжительность промежутка : 33 мс. (1,00 видеокадр)
Время предзагрузки промежутка : 500 мс



Скачать Простая история через торрент http://i99.fastpic.ru/big/2018/0217/45/633b176d22217a8de1b0a85003706f45.png Скачать, смотреть онлайн Простая история бесплантно в хорошем качестве Описание:Женщина, потеряв на войне мужа, посвятила свою жизнь колхозу. За прямоту и бескомпромиссность нрава многие невзлюбили Александру ... 10 10 2
Info! Золотая раздача, скачанное не засчитывается.
Торрент: Зарегистрирован [2018-02-19 07:31] · скачан: 26 раз
Статус: √ проверено
Размер: 1.09 GB
Как cкачать? Как скачать Простая история через торрент | UTorrent

% Раздел Тема Автор DL S | L
Кино СССР [ 746 MB ] Простая история | | DLRip от AVP Studio AVP Studio Скачать
1 | 0
Кино СССР [ 2.17 GB ] Простая история | | DLRip-AVC от AVP Studio AVP Studio Скачать
1 | 0

28-11-2019 20:33  

Отключить вcю реклaмy на сайте

    Дорогой пользователь! Огромная просьба, поблагодарите релизера, оцените раздачу и оставьте свои комментарий, если Вы скачали Простая история через торрент бесплатно!!
    Комментировать посты могут только пользователи прошедшие не сложную регистрацию
    Показать сообщения:    


    Простая история через торрент
    Скачать бесплатно Простая история
    Простая история скачать торрент
    Простая история смотреть онлайн
    Cкачать фильм Простая история бесплатно
    Простая история скачать торрент в хорошем качестве
    Простая история смотреть онлайн бесплатно в хорошем качестве
    Вы не можете начинать темы
    Вы не можете отвечать на сообщения
    Вы не можете редактировать свои сообщения
    Вы не можете удалять свои сообщения
    Вы не можете голосовать в опросах
    Вы не можете прикреплять файлы к сообщениям
    Вы можете скачивать файлы