Достать ножи: Стеклянная луковица

MVO

Добыча

Дубляж

Уэнсдэй

1 сезон

Тор

Дубляж

13 клиническая

1 сезон

Жестокая ночь

MVO

Одни из нас

1 сезон

Deluxe

pack

Рекомендуем

30

Пиратка

ВАЖНО

ВАЖНО

Ghostwire

Пиратка

jed

RePack

nioh2

RePack

RDR2

RePack

NEED FOR SPEED™ PAYBACK

RePack

скачать торрент

Кинопоиск HD

Острые козырьки 6 сезон

6 сезон

FAR CRY 6

RePack

скачать торрент

Лицензия

скачать торрент

MVO

1

1 сезон

скачать торрент

1 сезон

скачать торрент

Лицензия

  

Мост через реку Квай / The Bridge on the River Kwai (Дэвид Лин) [1957, Боевик, приключения, драма, военный, UHD BDRemux 2160p] AVO+DVO (ukr) +3xMVO [Лицензия]

Мост через реку Квай через торрент piratbit.org

Размер: 73.56 GB | Добавлен: 4 года 11 мес. назад | Торрент скачан:15 раз
Смотреть онлайн | Скачать | Поддержите нас   

19-02-2018 18:50 Мост через реку Квай Скачать торрент  

Мост через реку Квай / The Bridge on the River Kwai
Год выпуска: 1957
Страна: США, Великобритания
Жанр: Боевик, приключения, драма, военный
Продолжительность: 02:42:04
Перевод: Профессиональный многоголосый, авторский
Субтитры: Русские, английские (Full, SDH)

Режиссер: Дэвид Лин

rating

В ролях:

Алек Гиннесс, Уильям Холден, Джек Хоукинс, Сессю Хаякава, Джеймс Дональд, Джеффри Хорн, Андре Морелл, Питер Уильямс, Джон Боксер, Перси Херберт, Харольд Гудвин, Энн Сирс, Хэйхатиро Окава, Кэиитиро Кацумото

Описание:

Перед вами - самая знаменитая картина о грозном безумии войны, когда-либо снятая человеком. Этот великий киношедевр великого режиссёра Дэвида Лина, поставленный по одноименному роману Пьера Буля, завоевал 7 Оскаров. Это эпическая история - о мужестве, чести, и разрушительной бесчеловечной силе войны. Захваченные в плен японцами британские солдаты и их командир полковник Николсон вынуждены строить железнодорожный мост через реку Квай в Бирме. Несмотря на свирепый характер полковника Сайто, Николсон проявляет настоящее мужество. Тем временем командование назначает группу коммандос для уничтожения этого стратегически важного объекта.

Качество: UHD BDRemux 2160p
Формат: MKV

Видео: MPEG-H HEVC HDR, 55.8 Mбит/с, 3840x2160, 23.976 кадр/с
Аудио#1: Русский (AC3, 6 ch, 640 Кбит/с) / Профессиональный многоголосый (Blu-ray EUR)
Аудио#2: Русский (DTS-HD MA, 6 ch, 2284 Кбит/с) / Профессиональный многоголосый (Видеосерис)
Аудио#3: Русский (DTS-HD MA, 6 ch, 2284 Кбит/с) / Профессиональный многоголосый (SDI-Media)
Аудио#4: Русский (AC3, 2 ch, 192 Кбит/с) / Авторский (А. Михалев)
Аудио#5: Украинский (AC3, 6 ch, 448 Кбит/с) / Профессиональный двухголосый (Студия "Контакт)
Аудио#6: Английский (DTS-HD MA, 6 ch, 3693 Кбит/с)
скриншот  скриншот  скриншот  скриншот  скриншот  

General
Unique ID : 259993679561592540249001861829414580728 (0xC398F6169239B58FE6CCE1B8D2A771F8)
Complete name : D:uTorrentMost.cherez.reku.Kvay.1957.2160p.HEVC.UHD.HDR.MediaClub.mkv
Format : Matroska
Format version : Version 4 / Version 2
File size : 73.6 GiB
Duration : 2 h 42 min
Overall bit rate : 65.0 Mb/s
Encoded date : UTC 2018-02-13 01:12:08
Writing application : mkvmerge v19.0.0 ('Brave Captain') 64-bit
Writing library : libebml v1.3.5 + libmatroska v1.4.8
Cover : Yes
Attachments : cover.jpg

Video
ID : 1
Format : HEVC
Format/Info : High Efficiency Video Coding
Format profile : Main 10@L5.1@High
Codec ID : V_MPEGH/ISO/HEVC
Duration : 2 h 41 min
Bit rate : 55.8 Mb/s
Width : 3 840 pixels
Height : 2 160 pixels
Display aspect ratio : 16:9
Frame rate mode : Constant
Frame rate : 23.976 (24000/1001) FPS
Color space : YUV
Chroma subsampling : 4:2:0 (Type 2)
Bit depth : 10 bits
Bits/(Pixel*Frame) : 0.281
Stream size : 63.0 GiB (86%)
Title : BDRemux, 20160p, HEVC, UDH, HDR by Silverok
Default : Yes
Forced : No
Color range : Limited
Color primaries : BT.2020
Transfer characteristics : PQ
Matrix coefficients : BT.2020 non-constant
Mastering display color primaries : Display P3
Mastering display luminance : min: 0.0050 cd/m2, max: 4000 cd/m2
Maximum Content Light Level : 10000 cd/m2
Maximum Frame-Average Light Level : 272 cd/m2

Audio #1
ID : 2
Format : AC-3
Format/Info : Audio Coding 3
Codec ID : A_AC3
Duration : 2 h 41 min
Bit rate mode : Constant
Bit rate : 640 kb/s
Channel(s) : 6 channels
Channel positions : Front: L C R, Side: L R, LFE
Sampling rate : 48.0 kHz
Frame rate : 31.250 FPS (1536 SPF)
Bit depth : 16 bits
Compression mode : Lossy
Stream size : 739 MiB (1%)
Title : многоголосый закадровый (Blu-ray EUR)
Language : Russian
Service kind : Complete Main
Default : Yes
Forced : No

Audio #2
ID : 3
Format : DTS
Format/Info : Digital Theater Systems
Format profile : MA / Core
Codec ID : A_DTS
Duration : 2 h 42 min
Bit rate mode : Variable / Constant
Bit rate : 2 204 kb/s / 1 509 kb/s
Channel(s) : 6 channels
Channel positions : Front: L C R, Side: L R, LFE
Sampling rate : 48.0 kHz
Frame rate : 93.750 FPS (512 SPF)
Bit depth : 16 bits
Compression mode : Lossless / Lossy
Stream size : 2.49 GiB (3%)
Title : Многоголосый закадровый (Видеосерис)
Language : Russian
Default : No
Forced : No

Audio #3
ID : 4
Format : DTS
Format/Info : Digital Theater Systems
Format profile : MA / Core
Codec ID : A_DTS
Duration : 2 h 41 min
Bit rate mode : Variable / Constant
Bit rate : 2 206 kb/s / 1 509 kb/s
Channel(s) : 6 channels
Channel positions : Front: L C R, Side: L R, LFE
Sampling rate : 48.0 kHz
Frame rate : 93.750 FPS (512 SPF)
Bit depth : 16 bits
Compression mode : Lossless / Lossy
Stream size : 2.49 GiB (3%)
Title : Многоголосый закадровый (SDI-Media)
Language : Russian
Default : No
Forced : No

Audio #4
ID : 5
Format : AC-3
Format/Info : Audio Coding 3
Codec ID : A_AC3
Duration : 2 h 41 min
Bit rate mode : Constant
Bit rate : 192 kb/s
Channel(s) : 2 channels
Channel positions : Front: L R
Sampling rate : 48.0 kHz
Frame rate : 31.250 FPS (1536 SPF)
Bit depth : 16 bits
Compression mode : Lossy
Stream size : 222 MiB (0%)
Title : Авторский (А. Михалев)
Language : Russian
Service kind : Complete Main
Default : No
Forced : No

Audio #5
ID : 6
Format : AC-3
Format/Info : Audio Coding 3
Codec ID : A_AC3
Duration : 2 h 41 min
Bit rate mode : Constant
Bit rate : 448 kb/s
Channel(s) : 6 channels
Channel positions : Front: L C R, Side: L R, LFE
Sampling rate : 48.0 kHz
Frame rate : 31.250 FPS (1536 SPF)
Bit depth : 16 bits
Compression mode : Lossy
Stream size : 517 MiB (1%)
Title : Двухголосый закадровый (Студия "Контакт")
Language : Ukrainian
Service kind : Complete Main
Default : No
Forced : No

Audio #6
ID : 7
Format : DTS
Format/Info : Digital Theater Systems
Format profile : MA / Core
Codec ID : A_DTS
Duration : 2 h 41 min
Bit rate mode : Variable / Constant
Bit rate : 3 693 kb/s / 1 509 kb/s
Channel(s) : 6 channels
Channel positions : Front: L C R, Side: L R, LFE
Sampling rate : 48.0 kHz
Frame rate : 93.750 FPS (512 SPF)
Bit depth : 24 bits
Compression mode : Lossless / Lossy
Stream size : 4.17 GiB (6%)
Language : English
Default : No
Forced : No

Text #1
ID : 8
Format : UTF-8
Codec ID : S_TEXT/UTF8
Codec ID/Info : UTF-8 Plain Text
Duration : 2 h 34 min
Bit rate : 74 b/s
Count of elements : 1305
Stream size : 84.7 KiB (0%)
Language : Russian
Default : No
Forced : No

Text #2
ID : 9
Format : UTF-8
Codec ID : S_TEXT/UTF8
Codec ID/Info : UTF-8 Plain Text
Duration : 2 h 34 min
Bit rate : 44 b/s
Count of elements : 1346
Stream size : 50.8 KiB (0%)
Title : Full
Language : English
Default : No
Forced : No

Text #3
ID : 10
Format : UTF-8
Codec ID : S_TEXT/UTF8
Codec ID/Info : UTF-8 Plain Text
Duration : 2 h 39 min
Bit rate : 47 b/s
Count of elements : 1447
Stream size : 55.6 KiB (0%)
Title : Full SDH
Language : English
Default : No
Forced : No

Menu
00:00:00.000 : en:00:00:00.000
00:00:16.016 : en:00:00:16.016
00:01:30.173 : en:00:01:30.173
00:02:11.256 : en:00:02:11.256
00:03:25.414 : en:00:03:25.414
00:04:06.496 : en:00:04:06.496
00:05:01.593 : en:00:05:01.593
00:06:16.751 : en:00:06:16.751
00:07:46.925 : en:00:07:46.925
00:08:38.017 : en:00:08:38.017
00:11:42.410 : en:00:11:42.410
00:12:44.555 : en:00:12:44.555
00:13:27.598 : en:00:13:27.598
00:14:22.695 : en:00:14:22.695
00:16:12.930 : en:00:16:12.930
00:17:43.145 : en:00:17:43.145
00:18:23.227 : en:00:18:23.227
00:19:55.403 : en:00:19:55.403
00:20:25.433 : en:00:20:25.433
00:21:59.652 : en:00:21:59.652
00:23:28.824 : en:00:23:28.824
00:24:18.916 : en:00:24:18.916
00:25:34.074 : en:00:25:34.074
00:27:16.260 : en:00:27:16.260
00:28:20.407 : en:00:28:20.407
00:29:34.564 : en:00:29:34.564
00:31:09.701 : en:00:31:09.701
00:32:56.933 : en:00:32:56.933
00:35:19.242 : en:00:35:19.242
00:36:17.342 : en:00:36:17.342
00:37:55.565 : en:00:37:55.565
00:39:25.738 : en:00:39:25.738
00:40:55.912 : en:00:40:55.912
00:42:01.018 : en:00:42:01.018
00:43:26.187 : en:00:43:26.187
00:44:59.405 : en:00:44:59.405
00:46:31.580 : en:00:46:31.580
00:48:42.837 : en:00:48:42.837
00:50:07.004 : en:00:50:07.004
00:51:07.147 : en:00:51:07.147
00:52:31.273 : en:00:52:31.273
00:53:40.426 : en:00:53:40.426
00:55:37.668 : en:00:55:37.668
00:56:47.821 : en:00:56:47.821
00:58:20.997 : en:00:58:20.997
00:59:43.163 : en:00:59:43.163
01:01:38.403 : en:01:01:38.403
01:02:38.505 : en:01:02:38.505
01:03:55.665 : en:01:03:55.665
01:05:18.832 : en:01:05:18.832
01:06:49.005 : en:01:06:49.005
01:08:36.237 : en:01:08:36.237
01:09:44.347 : en:01:09:44.347
01:11:26.574 : en:01:11:26.574
01:13:31.824 : en:01:13:31.824
01:14:34.887 : en:01:14:34.887
01:15:40.077 : en:01:15:40.077
01:16:15.154 : en:01:16:15.154
01:17:40.322 : en:01:17:40.322
01:19:10.496 : en:01:19:10.496
01:21:05.694 : en:01:21:05.694
01:22:15.848 : en:01:22:15.848
01:23:25.959 : en:01:23:25.959
01:24:29.147 : en:01:24:29.147
01:25:36.256 : en:01:25:36.256
01:27:21.486 : en:01:27:21.486
01:28:36.603 : en:01:28:36.603
01:29:16.685 : en:01:29:16.685
01:29:56.808 : en:01:29:56.808
01:30:31.843 : en:01:30:31.843
01:31:06.920 : en:01:31:06.920
01:32:57.155 : en:01:32:57.155
01:34:12.272 : en:01:34:12.272
01:35:28.431 : en:01:35:28.431
01:36:57.603 : en:01:36:57.603
01:38:42.834 : en:01:38:42.834
01:40:02.955 : en:01:40:02.955
01:41:43.180 : en:01:41:43.180
01:42:34.273 : en:01:42:34.273
01:43:43.426 : en:01:43:43.426
01:45:03.589 : en:01:45:03.589
01:46:15.744 : en:01:46:15.744
01:47:33.989 : en:01:47:33.989
01:47:41.914 : en:01:47:41.914
01:48:25.999 : en:01:48:25.999
01:49:34.109 : en:01:49:34.109
01:51:39.401 : en:01:51:39.401
01:52:51.515 : en:01:52:51.515
01:53:31.596 : en:01:53:31.596
01:54:44.753 : en:01:54:44.753
01:57:00.013 : en:01:57:00.013
01:57:55.151 : en:01:57:55.151
01:59:20.278 : en:01:59:20.278
02:01:51.638 : en:02:01:51.638
02:02:30.677 : en:02:02:30.677
02:03:52.842 : en:02:03:52.842
02:04:25.917 : en:02:04:25.917
02:05:28.020 : en:02:05:28.020
02:07:43.322 : en:02:07:43.322
02:08:31.412 : en:02:08:31.412
02:09:28.511 : en:02:09:28.511
02:10:54.680 : en:02:10:54.680
02:11:56.826 : en:02:11:56.826
02:13:26.957 : en:02:13:26.957
02:13:52.024 : en:02:13:52.024
02:15:30.247 : en:02:15:30.247
02:16:45.364 : en:02:16:45.364
02:18:37.643 : en:02:18:37.643
02:21:32.943 : en:02:21:32.943
02:23:43.198 : en:02:23:43.198
02:24:48.346 : en:02:24:48.346
02:26:35.578 : en:02:26:35.578
02:27:38.683 : en:02:27:38.683
02:30:44.035 : en:02:30:44.035
02:32:29.265 : en:02:32:29.265
02:34:29.510 : en:02:34:29.510
02:35:24.607 : en:02:35:24.607
02:37:11.839 : en:02:37:11.839
02:38:06.977 : en:02:38:06.977
02:38:40.010 : en:02:38:40.010
02:39:25.097 : en:02:39:25.097
02:40:05.179 : en:02:40:05.179
02:40:56.272 : en:02:40:56.272




Скачать Мост через реку Квай через торрент http://img12.lostpic.net/2018/02/19/94242a9bd10e2096b308d502b0d541c6.jpg Скачать, смотреть онлайн Мост через реку Квай бесплантно в хорошем качестве Описание: Перед вами - самая знаменитая картина о грозном безумии войны, когда-либо снятая человеком. Этот великий киношедевр великого ... 10 10 3
Info! Золотая раздача, скачанное не засчитывается.
Торрент: Зарегистрирован [2018-02-19 18:50] · скачан: 15 раз
Статус: √ проверено
Размер: 73.56 GB
Как cкачать? Как скачать Мост через реку Квай через торрент | UTorrent

28-11-2019 20:33  


Отключить вcю реклaмy на сайте, в т.ч. и в плеере онлайн просмотра!

    Дорогой пользователь! Огромная просьба, поблагодарите релизера, оцените раздачу и оставьте свои комментарий, если Вы скачали Мост через реку Квай через торрент бесплатно!!
    Комментировать посты могут только пользователи прошедшие не сложную регистрацию
    Показать сообщения:    


    Мост через реку Квай через торрент
    Скачать бесплатно Мост через реку Квай
    Мост через реку Квай скачать торрент
    Мост через реку Квай смотреть онлайн
    Cкачать фильм Мост через реку Квай бесплатно
    Мост через реку Квай скачать торрент в хорошем качестве
    Мост через реку Квай смотреть онлайн бесплатно в хорошем качестве
    Вы не можете начинать темы
    Вы не можете отвечать на сообщения
    Вы не можете редактировать свои сообщения
    Вы не можете удалять свои сообщения
    Вы не можете голосовать в опросах
    Вы не можете прикреплять файлы к сообщениям
    Вы можете скачивать файлы
    Мост через реку Квай / The Bridge on the River Kwai [1957, Боевик, приключения, драма, военный, UHD BDRemux 2160p] AVO+DVO +3xMVO [Лицензия] смотреть онлайн, скачать торрент picoco.icu