1 сезон

3 сезон

iTunes

1

iTunes

DUB Netflix

iTunes

13

1 сезон

RePack

30

Deluxe

pack

Легкие деньги

ВАЖНО

ИГРА 18+

pack

RePack

MK11

RePack

jed

RePack

fifa19

RePack

RDR2

RePack

NEED FOR SPEED™ PAYBACK

4 сезон

9 сезон

Бесстыжие 9 сезон

Все сериалы

все сериалы на PB.wtf

RePack

FAR CRY 5

Anonymous, доброй ночи, мы не успеваем до 1 числа собрать деньги на оплату серверов, помогите нам пожалуйста в это трудное время. В качестве благодарности мы отключим Вам всю рекламу на сайте (укажите свой ник в строку Ваше имя)!

×
  
Magnet ссылка

Улица / Сезон 1 / Серии 1-79 из 79 (Жанна Кадникова, Николай Бурлак, Михаил Соловьёв) [2017, Драма, комедия, мелодрама, триллер, HDTV 1080i] piratbit.org

Улица через торрент piratbit.org

Размер: 93.59 GB | Добавлен: 3 года 4 мес. назад | Торрент скачан:32 раза
Скачать  

19-02-2018 21:40 Улица Скачать торрент  

Улица
Год выпуска: 2017
Страна: Россия
Жанр: Драма, комедия, мелодрама, триллер
Продолжительность: x ~ 00:27:00



Режиссер: Жанна Кадникова, Николай Бурлак, Михаил Соловьёв

В ролях:

Егор Клинаев, Ольга Баранова, Владимир Хацкевич, Екатерина Седик, Павел Савинков, Сергей Змичеревский, Артемий Падалка, Марина Богатова, Ксения Жданова, Марта Дромашко, Александр Терехов

Описание:

«Улица» — это история жителей одной из улиц спального района большого города. Школьники и студенты, домохозяйки и продавцы, олигархи и простые рабочие — здесь встретятся более 30 персонажей разного возраста и социального статуса, у каждого из них своя история. В большой Вселенной «Улицы» нет главных и второстепенных героев, здесь есть бурная жизнь с ее радостями, горестями, казусами и косяками, страхами, любовными переживаниями и трагедиями. Это история про всех нас и наших соседей.

Качество: HDTV 1080i
Формат: MPEG-TS

Видео: MPEG-4 AVC, ~ 6000 Кбит/с, 1920x1080
Аудио: Русский (MP2, 2 ch, 192 Кбит/с)
скриншот  скриншот  скриншот  

Общее
Идентификатор : 1 (0x1)
Полное имя : C:\Users\Бобер\Desktop\Ulica.2017.HDTV.(1080i).Nikolspup\Ulica.(01.seriya).2017.HDTV.(1080i).Nikolspup.ts
Формат : MPEG-TS
Размер файла : 1,18 Гбайт
Продолжительность : 27 м. 12 с.
Режим общего битрейта : Переменный
Общий поток : 6213 Кбит/сек

Видео
Идентификатор : 207 (0xCF)
Идентификатор меню : 2207 (0x89F)
Формат : AVC
Формат/Информация : Advanced Video Codec
Профиль формата : High@L4
Параметр CABAC формата : Да
Параметр ReFrames формата : 4 кадра
Идентификатор кодека : 27
Продолжительность : 27 м. 12 с.
Битрейт : 5712 Кбит/сек
Ширина : 1920 пикселей
Высота : 1080 пикселей
Соотношение сторон : 16:9
Частота кадров : 25,000 кадров/сек
Стандарт вещания : Component
Цветовое пространство : YUV
Субдискретизация насыщенности : 4:2:0
Битовая глубина : 8 бит
Тип развёртки : Чересстрочная
Метод сохранения типа развёртки : Раздельные поля
Порядок развёртки : Верхнее поле первое
Бит/(Пиксели*Кадры) : 0.110
Размер потока : 1,09 Гбайт (92%)
Цветовой диапазон : Limited
Основные цвета : BT.709
Характеристики трансфера : BT.709
Коэффициенты матрицы : BT.709

Аудио
Идентификатор : 307 (0x133)
Идентификатор меню : 2207 (0x89F)
Формат : MPEG Audio
Версия формата : Version 1
Профиль формата : Layer 2
Идентификатор кодека : 3
Продолжительность : 27 м. 12 с.
Вид битрейта : Постоянный
Битрейт : 192 Кбит/сек
Каналы : 2 канала
Частота : 48,0 КГц
Метод сжатия : С потерями
Задержка видео : -40 мс.
Размер потока : 37,4 Мбайт (3%)
Язык : Russian

Когда раздача ведётся путём добавления новых серий, при каждом добавлении создётся новый торрент. Чтобы начать докачку новой серии, пользователям необходимо сделать следующее:
(1) остановить скачивание,
(2) удалить старый торрент у себя из клиента (старые серии удалять не надо),
(3) скачать новый торрент и запустить его у себя в клиенте вместо старого, при этом указать клиенту путь в старую папку, куда и должно происходить скачивание новых серий.
Ваш клиент при этом должен произвести хеширование (проверку) старой папки (если не производит сам - помогите ему сделать это), и будет докачивать только те серии, которых у вас ещё нет. Старые серии при этом не удаляются, а продолжают раздаваться!
Eсли вы уже удалили старые серии, то предотвратить повторную закачку старых серий можно, отжав галочку в соответсвующих местах при запуске нового торрента. По возможности, желательно не удалять старые серии как можно дольше, чтобы релизёр не столько продолжал раздавать старые серии, а смог сконцентрироваться на новых.
piratbit.org



Скачать Улица через торрент http://s019.radikal.ru/i619/1710/6c/bcf94f2cf9e4.jpg Скачать фильм Улица через торрент бесплантно в хорошем качестве Описание: «Улица» — это история жителей одной из улиц спального района большого города. Школьники и студенты, домохозяйки и продавцы, ... 10 10 4
Info! Золотая раздача, скачанное не засчитывается.
Торрент: Зарегистрирован [2018-02-21 18:42] · скачан: 32 раз
Статус: √ проверено
Размер: 93.59 GB
Как cкачать? Как скачать Улица через торрент | UTorrent

% Раздел Тема Автор DL S | L
TNT serials [ 20.87 GB ] Улица / Сезон 1 / Серии 1-79 из 79 [2017 HDTVRip] bober100 Скачать
1 | 0
TNT serials [ 23.25 GB ] Улица / Сезон 1 / Серии 1-79 из 79 [2017 SATRip] bober100 Скачать
1 | 0
TNT serials [ 23.27 GB ] Улица / Сезон: 1 / Серии 1-79 из 79 [2017 Россия WEB-DLRip] GEKADOL Скачать
1 | 0
TNT serials [ 22.86 GB ] Улица / Сезон 1 / Серии 1-79 из 79 [2017 WEB-DLRip-AVC] bober100 Скачать
1 | 0

28-11-2019 20:33  

Отключить всю рекламу на сайте

    Дорогой пользователь! Огромная просьба, поблагодарите релизера, оцените раздачу и оставьте свои комментарий, если Вы скачали Улица через торрент бесплатно! Внесите свою лепту в развитие PiratBit!
    Комментировать посты могут только пользователи прошедшие не сложную регистрацию
    Показать сообщения:    

    Улица через торрент
    Скачать бесплатно Улица
    Улица скачать торрент
    Улица смотреть онлайн
    Cкачать фильм Улица бесплатно
    Улица скачать торрент в хорошем качестве
    Улица смотреть онлайн бесплатно в хорошем качестве


    Вы не можете начинать темы
    Вы не можете отвечать на сообщения
    Вы не можете редактировать свои сообщения
    Вы не можете удалять свои сообщения
    Вы не можете голосовать в опросах
    Вы не можете прикреплять файлы к сообщениям
    Вы можете скачивать файлы