Доктор Стрэндж

Лицензия

Добыча

MVO

Дом дракона

1 сезон

Тор

Лицензия

Мэверик

Лицензия

Там, где раки поют

MVO

Властелин колец

1 сезон

Ultimate

pack

Рекомендуем

30

Repack

ВАЖНО

ВАЖНО

Ghostwire

RePack

jed

RePack

nioh2

RePack

RDR2

RePack

NEED FOR SPEED™ PAYBACK

RePack

скачать торрент

Кинопоиск HD

Острые козырьки 6 сезон

6 сезон

FAR CRY 6

RePack

скачать торрент

Лицензия

скачать торрент

MVO

1

1 сезон

скачать торрент

1 сезон

скачать торрент

Лицензия

  

Алёшкина любовь (Георгий Щукин, Семен Туманов) [1960, СССР, драма, мелодрама, комедия, DVDRip от AVP Studio]

Алёшкина любовь через торрент piratbit.org

Размер: 745 MB | Добавлен: 4 года 7 мес. назад | Торрент скачан:48 раз
Смотреть онлайн | Скачать   

20-02-2018 08:39 Алёшкина любовь Скачать торрент  

Алёшкина любовь
Страна: СССР
Производство: Мосфильм

Жанр: драма, мелодрама, комедия
Год выпуска: 1960
Продолжительность: 01:22:58

Перевод: Не требуется
Cубтитры: нет
Оригинальная аудиодорожка: русский

Режиссер: Георгий Щукин, Семен Туманов

В ролях:
Леонид Быков, Александра Завьялова, Алексей Грибов, Юрий Белов, Иван Савкин, Владимир Гуляев, Алексей Зайцев, Борис Балакин, Ольга Хорькова, Иван Рыжов, Пётр Соболевский...
Об актёрах подробней

Описание:
В одном из степных районов работает небольшая группа геологов-буровиков. Стеснительный, робкий Алёшка (Леонид Быков) не похож на своих товарищей. И стрелочницу Зинку (Александра Завьялова) он любит как-то необычно: не объяснится, не поцелует, не пригласит никуда. Только ходит к переезду с букетами цветов, стоит в стороне и вздыхает. Буровая вышка переезжает всё дальше и дальше, но это не удерживает Алёшку. В бурю и в дождь шагает он по безлюдной степи к переезду. И товарищи, которые недавно смеялись над Алёшкиной любовью, наконец увидели его преданность, мужество и верность - увидели и поразились красоте и силе его чувства.

Источник: DVD5 R5
Качество видео: DVDRip
Формат видео: AVI

Видео: 720x304 (2,35:1), 25 fps, XviD ~ 1053 kbps avg, 0.192 bit/pixel
Аудио: 48 kHz, Dolby Digital AC3 2.0, 192 kbps

Раздача от:
Общее
Полное имя : Alyoshkina.lyubov.1960.DVDRip_[New-team]_by_AVP_Studio.avi
Формат : AVI
Формат/Информация : Audio Video Interleave
Размер файла : 745 Мбайт
Продолжительность : 1 ч. 22 м.
Общий поток : 1255 Кбит/сек
Программа кодирования : VirtualDubMod 1.5.10.3 | www.virtualdub-fr.org || (build 2550/release)
Библиотека кодирования : VirtualDubMod build 2550/release

Видео
Идентификатор : 0
Формат : MPEG-4 Visual
Профиль формата : Advanced Simple@L5
Настройки формата : BVOP1 / Custom Matrix
Параметр BVOP формата : 1
Параметр QPel формата : Нет
Параметр GMC формата : Без точки перехода
Параметр матрицы формата : Выборочная
Идентификатор кодека : XVID
Идентификатор кодека/Подсказка : XviD
Продолжительность : 1 ч. 22 м.
Битрейт : 1053 Кбит/сек
Ширина : 720 пикселей
Высота : 304 пикселя
Соотношение сторон : 2,35:1
Частота кадров : 25,000 кадров/сек
Цветовое пространство : YUV
Субдискретизация насыщенности : 4:2:0
Битовая глубина : 8 бит
Тип развёртки : Прогрессивная
Метод сжатия : С потерями
Бит/(Пиксели*Кадры) : 0.192
Размер потока : 625 Мбайт (84%)
Библиотека кодирования : XviD 73

Аудио
Идентификатор : 1
Формат : AC-3
Формат/Информация : Audio Coding 3
Идентификатор кодека : 2000
Продолжительность : 1 ч. 22 м.
Вид битрейта : Постоянный
Битрейт : 192 Кбит/сек
Каналы : 2 канала
Расположение каналов : Front: L R
Частота : 48,0 КГц
Частота кадров : 31,250 кадров/сек (1536 SPF)
Битовая глубина : 16 бит
Метод сжатия : С потерями
Размер потока : 114 Мбайт (15%)
Выравнивание : Разделение по промежуткам
Продолжительность промежутка : 40 мс. (1,00 видеокадр)
Время предзагрузки промежутка : 500 мс



Скачать Алёшкина любовь через торрент http://i103.fastpic.ru/big/2018/0220/1a/9dc6619bf7c58c86fc2293250d2cf31a.png Скачать, смотреть онлайн Алёшкина любовь бесплантно в хорошем качестве Описание:В одном из степных районов работает небольшая группа геологов-буровиков. Стеснительный, робкий Алёшка (Леонид Быков) не похож на ... 10 10 1
Info! Золотая раздача, скачанное не засчитывается.
Торрент: Зарегистрирован [2018-02-20 08:39] · скачан: 48 раз
Статус: √ проверено
Размер: 745 MB
Как cкачать? Как скачать Алёшкина любовь через торрент | UTorrent

% Раздел Тема Автор DL S | L
Кино СССР [ 744 MB ] Алёшкина любовь | | DVDRip-AVC от AVP Studio AVP Studio Скачать
1 | 0

28-11-2019 20:33  


Отключить вcю реклaмy на сайте, в т.ч. и в плеере онлайн просмотра!

    Дорогой пользователь! Огромная просьба, поблагодарите релизера, оцените раздачу и оставьте свои комментарий, если Вы скачали Алёшкина любовь через торрент бесплатно!!
    Комментировать посты могут только пользователи прошедшие не сложную регистрацию
    Показать сообщения:    


    Алёшкина любовь через торрент
    Скачать бесплатно Алёшкина любовь
    Алёшкина любовь скачать торрент
    Алёшкина любовь смотреть онлайн
    Cкачать фильм Алёшкина любовь бесплатно
    Алёшкина любовь скачать торрент в хорошем качестве
    Алёшкина любовь смотреть онлайн бесплатно в хорошем качестве
    Вы не можете начинать темы
    Вы не можете отвечать на сообщения
    Вы не можете редактировать свои сообщения
    Вы не можете удалять свои сообщения
    Вы не можете голосовать в опросах
    Вы не можете прикреплять файлы к сообщениям
    Вы можете скачивать файлы