Лицензия

MVO

1

1 сезон

Лицензия

Лицензия

13

MVO

1 сезон

Deluxe Edition

pack

Рекомендуем

30

Repack

ВАЖНО

ВАЖНО

Ghostwire

RePack

jed

RePack

fifa19

RePack

RDR2

RePack

NEED FOR SPEED™ PAYBACK

RePack

Кинопоиск HD

 Острые козырьки 6 сезон

6 сезон

FAR CRY 6

RePack

Лицензия

MVO

1

1 сезон

1 сезон

Лицензия

  

Парни музкоманды (Генрих Малян, Генрих Маркарян) [1960, СССР, комедия, SATRip от AVP Studio]

Парни музкоманды через торрент piratbit.org

Размер: 1.09 GB | Добавлен: 4 года 7 мес. назад | Торрент скачан:13 раз
Смотреть онлайн Парни музкоманды | Скачать   

23-02-2018 09:26 Парни музкоманды Скачать торрент  

Парни музкоманды
Страна: СССР
Производство: Арменфильм

Жанр: комедия
Год выпуска: 1960
Продолжительность: 01:23:47

Перевод: Не требуется
Cубтитры: нет
Оригинальная аудиодорожка: русский

Режиссер: Генрих Малян, Генрих Маркарян

В ролях:
Левон Тухикян, Фрунзик Мкртчян, Армен Хостикян, Роберт Мкртчян, Маис Карагезян, Ким Ерицян, Арман Котикян, Вахинак Маргуни, Лоренц Арушанян, Хачик Назаретян, Гаруш Хажакян, Сос Саркисян...
Об актёрах подробней

Описание:
По повести Микаела Шатиряна "Музыкантская команда".
Действие происходит осенью 1920 года. В музыкантской команде одного из дашнакских полков Армении служат простые и дружные ребята. Но вот к ним в оркестр пришёл новый кларнетист Цолак Дарбинян, сразу же вызвавший всеобщую неприязнь.

Исходник: DVB
Качество видео: SATRip
Формат видео: AVI

Видео: 704х528 (4:3), 25 fps, XviD ~ 1661 kbps avg, 0.179 bit/pixel
Аудио: 48 kHz, Dolby Digital AC3 2.0, 192 kbps

Раздача от:
Общее
Полное имя : Parni.muzkomandy.1960.SATRip_[New-team]_by_AVP_Studio.avi
Формат : AVI
Формат/Информация : Audio Video Interleave
Размер файла : 1,09 Гбайт
Продолжительность : 1 ч. 23 м.
Общий поток : 1863 Кбит/сек
Программа кодирования : VirtualDubMod 1.5.10.3 | www.virtualdub-fr.org || (build 2550/release)
Библиотека кодирования : VirtualDubMod build 2550/release

Видео
Идентификатор : 0
Формат : MPEG-4 Visual
Профиль формата : Advanced Simple@L5
Настройки формата : BVOP1 / Custom Matrix
Параметр BVOP формата : 1
Параметр QPel формата : Нет
Параметр GMC формата : Без точки перехода
Параметр матрицы формата : Выборочная
Идентификатор кодека : XVID
Идентификатор кодека/Подсказка : XviD
Продолжительность : 1 ч. 23 м.
Битрейт : 1661 Кбит/сек
Ширина : 704 пикселя
Высота : 528 пикселей
Соотношение сторон : 4:3
Частота кадров : 25,000 кадров/сек
Цветовое пространство : YUV
Субдискретизация насыщенности : 4:2:0
Битовая глубина : 8 бит
Тип развёртки : Прогрессивная
Метод сжатия : С потерями
Бит/(Пиксели*Кадры) : 0.179
Размер потока : 995 Мбайт (89%)
Библиотека кодирования : XviD 73

Аудио
Идентификатор : 1
Формат : AC-3
Формат/Информация : Audio Coding 3
Идентификатор кодека : 2000
Продолжительность : 1 ч. 23 м.
Вид битрейта : Постоянный
Битрейт : 192 Кбит/сек
Каналы : 2 канала
Расположение каналов : Front: L R
Частота : 48,0 КГц
Частота кадров : 31,250 кадров/сек (1536 SPF)
Битовая глубина : 16 бит
Метод сжатия : С потерями
Размер потока : 115 Мбайт (10%)
Выравнивание : Разделение по промежуткам
Продолжительность промежутка : 40 мс. (1,00 видеокадр)
Время предзагрузки промежутка : 500 мс



Скачать Парни музкоманды через торрент http://i99.fastpic.ru/big/2018/0223/98/f7615b16ede141529bd4a0ab7377c098.png Скачать, смотреть онлайн Парни музкоманды бесплантно в хорошем качестве Описание:По повести Микаела Шатиряна "Музыкантская команда".Действие происходит осенью 1920 года. В музыкантской команде одного из ... 10 10 1
Info! Золотая раздача, скачанное не засчитывается.
Торрент: Зарегистрирован [2018-02-23 09:26] · скачан: 13 раз
Статус: √ проверено
Размер: 1.09 GB
Как cкачать? Как скачать Парни музкоманды через торрент | UTorrent

% Раздел Тема Автор DL S | L
Кино СССР [ 1.09 GB ] Парни музкоманды | | SATRip-AVC от AVP Studio AVP Studio Скачать
1 | 0

28-11-2019 20:33  

Отключить вcю реклaмy на сайте

    Дорогой пользователь! Огромная просьба, поблагодарите релизера, оцените раздачу и оставьте свои комментарий, если Вы скачали Парни музкоманды через торрент бесплатно!!
    Комментировать посты могут только пользователи прошедшие не сложную регистрацию
    Показать сообщения:    


    Парни музкоманды через торрент
    Скачать бесплатно Парни музкоманды
    Парни музкоманды скачать торрент
    Парни музкоманды смотреть онлайн
    Cкачать фильм Парни музкоманды бесплатно
    Парни музкоманды скачать торрент в хорошем качестве
    Парни музкоманды смотреть онлайн бесплатно в хорошем качестве
    Вы не можете начинать темы
    Вы не можете отвечать на сообщения
    Вы не можете редактировать свои сообщения
    Вы не можете удалять свои сообщения
    Вы не можете голосовать в опросах
    Вы не можете прикреплять файлы к сообщениям
    Вы можете скачивать файлы