Доктор Стрэндж

Лицензия

Добыча

MVO

Дом дракона

1 сезон

Тор

Лицензия

Мэверик

Лицензия

Там, где раки поют

MVO

Властелин колец

1 сезон

Ultimate

pack

Рекомендуем

30

Repack

ВАЖНО

ВАЖНО

Ghostwire

RePack

jed

RePack

nioh2

RePack

RDR2

RePack

NEED FOR SPEED™ PAYBACK

RePack

скачать торрент

Кинопоиск HD

Острые козырьки 6 сезон

6 сезон

FAR CRY 6

RePack

скачать торрент

Лицензия

скачать торрент

MVO

1

1 сезон

скачать торрент

1 сезон

скачать торрент

Лицензия

  

Евгения Гранде (Сергей Алексеев) [1960, СССР, драма, мелодрама, DVDRip от AVP Studio]

Евгения Гранде через торрент piratbit.org

Размер: 1.19 GB | Добавлен: 4 года 7 мес. назад | Торрент скачан:20 раз
Смотреть онлайн Евгения Гранде | Скачать   

01-03-2018 09:22 Евгения Гранде Скачать торрент  

Евгения Гранде
Страна: СССР
Производство: Мосфильм

Жанр: драма, мелодрама
Год выпуска: 1960
Продолжительность: 01:35:25

Перевод: Не требуется
Cубтитры: нет
Оригинальная аудиодорожка: русский

Режиссер: Сергей Алексеев

В ролях:
Семен Межинский, Евдокия Турчанинова, Ариадна Шенгелая, Михаил Козаков, Александр Грузинский, Евгений Велихов, Владимир Владиславский, Виктор Хохряков, Ирина Ликсо, Никита Подгорный, Татьяна Панкова, Владимир Вилль, Пётр Старковский...
Об актёрах подробней

Описание:
Телевизионный фильм по одноимённому роману Оноре де Бальзака.
Отец Евгении Гранде (Семён Межинский) до французской революции 1789 года был простым бочаром. Революция позволила ему вылезти "из грязи в князи", он разбогател и даже стал мэром родного городка. Но родная дочь мысленно осуждает его - за скупость, за бездушие. Евгения (Ариадна Шенгелая) влюблена в собственного кузена Шарля (Михаил Козаков), который однажды уехал на заработки в Ост-Индию, и с тех пор не объявлялся. После смерти отца Евгения становится наследницей огромного состояния, от женихов нет отбоя, но ни один их них не способен сделать героиню счастливой...

Источник: DVD5 R5
Качество видео: DVDRip
Формат видео: AVI

Видео: 672x496 (4:3), 25,000 кадров/сек, XviD ~ 1582 kbps avg, 0.190 bit/pixel
Аудио: 48 kHz, Dolby Digital AC3 2.0, 192 kbps

Раздача от:
Общее
Полное имя : Evgeniya.Grande.1960.DVDRip_[New-team]_by_AVP_Studio.avi
Формат : AVI
Формат/Информация : Audio Video Interleave
Размер файла : 1,19 Гбайт
Продолжительность : 1 ч. 35 м.
Общий поток : 1784 Кбит/сек
Программа кодирования : VirtualDubMod 1.5.10.3 | www.virtualdub-fr.org || (build 2550/release)
Библиотека кодирования : VirtualDubMod build 2550/release

Видео
Идентификатор : 0
Формат : MPEG-4 Visual
Профиль формата : Advanced Simple@L5
Настройки формата : BVOP1 / Custom Matrix
Параметр BVOP формата : 1
Параметр QPel формата : Нет
Параметр GMC формата : Без точки перехода
Параметр матрицы формата : Выборочная
Идентификатор кодека : XVID
Идентификатор кодека/Подсказка : XviD
Продолжительность : 1 ч. 35 м.
Битрейт : 1582 Кбит/сек
Ширина : 672 пикселя
Высота : 496 пикселей
Соотношение сторон : 4:3
Частота кадров : 25,000 кадров/сек
Цветовое пространство : YUV
Субдискретизация насыщенности : 4:2:0
Битовая глубина : 8 бит
Тип развёртки : Прогрессивная
Метод сжатия : С потерями
Бит/(Пиксели*Кадры) : 0.190
Размер потока : 1,05 Гбайт (89%)
Библиотека кодирования : XviD 73

Аудио
Идентификатор : 1
Формат : AC-3
Формат/Информация : Audio Coding 3
Идентификатор кодека : 2000
Продолжительность : 1 ч. 35 м.
Вид битрейта : Постоянный
Битрейт : 192 Кбит/сек
Каналы : 2 канала
Расположение каналов : Front: L R
Частота : 48,0 КГц
Частота кадров : 31,250 кадров/сек (1536 SPF)
Битовая глубина : 16 бит
Метод сжатия : С потерями
Размер потока : 131 Мбайт (11%)
Выравнивание : Разделение по промежуткам
Продолжительность промежутка : 40 мс. (1,00 видеокадр)
Время предзагрузки промежутка : 500 мс



Скачать Евгения Гранде через торрент http://picplus.ru/img/1803/01/1f20ec51.png Скачать, смотреть онлайн Евгения Гранде бесплантно в хорошем качестве Описание:Телевизионный фильм по одноимённому роману Оноре де Бальзака.Отец Евгении Гранде (Семён Межинский) до французской революции 1789 ... 5 10 1
Info! Золотая раздача, скачанное не засчитывается.
Торрент: Зарегистрирован [2018-03-01 09:22] · скачан: 20 раз
Статус: √ проверено
Размер: 1.19 GB
Как cкачать? Как скачать Евгения Гранде через торрент | UTorrent

% Раздел Тема Автор DL S | L
Кино СССР [ 1.19 GB ] Евгения Гранде | | DVDRip-AVC от AVP Studio AVP Studio Скачать
1 | 0

28-11-2019 20:33  

Отключить вcю реклaмy на сайте

    Дорогой пользователь! Огромная просьба, поблагодарите релизера, оцените раздачу и оставьте свои комментарий, если Вы скачали Евгения Гранде через торрент бесплатно!!
    Комментировать посты могут только пользователи прошедшие не сложную регистрацию
    Показать сообщения:    


    Евгения Гранде через торрент
    Скачать бесплатно Евгения Гранде
    Евгения Гранде скачать торрент
    Евгения Гранде смотреть онлайн
    Cкачать фильм Евгения Гранде бесплатно
    Евгения Гранде скачать торрент в хорошем качестве
    Евгения Гранде смотреть онлайн бесплатно в хорошем качестве
    Вы не можете начинать темы
    Вы не можете отвечать на сообщения
    Вы не можете редактировать свои сообщения
    Вы не можете удалять свои сообщения
    Вы не можете голосовать в опросах
    Вы не можете прикреплять файлы к сообщениям
    Вы можете скачивать файлы