2 сезон

iTunes

WEBRip

1

2 сезон

iTunes

1 сезон

1 сезон

RePack

30

Новинка

ВАЖНО

ИГРА 18+

pack

RePack

MK11
pack

Легкие деньги

RePack

jed

RePack

fifa19

RePack

RDR2

RePack

NEED FOR SPEED™ PAYBACK

4 сезон

9 сезон

Бесстыжие 9 сезон

Все сериалы

все сериалы на PB.wtf

RePack

FAR CRY 5

Anonymous, доброе утро, мы не успеваем собрать деньги на оплату серверов за февраль, помогите нам пожалуйста в это трудное время. В качестве благодарности мы отключим Вам всю рекламу на сайте (укажите свой ник в строку Ваше имя)!

×
  
Magnet ссылка

Икар / Icarus (Брайан Фогель) [2017, документальный, триллер, WEBRip 1080p] [MVO Ukr] ("Омікрон") piratbit.org

Икар через торрент piratbit.org

Размер: 9.03 GB | Добавлен: 2 года 11 мес. назад | Торрент скачан:38 раз
Скачать  

06-03-2018 15:51 Икар Скачать торрент  

Икар / Icarus
Год выхода: 2017
Жанр: документальный, триллер
Страна: США
Продолжительность: 02:01:12
Перевод: Украинский (профессиональный, многоголосный) ["Омікрон"]
Субтитры: Украинские, английские

Режиссер: Брайан Фогель

В главных ролях: Брайан Фогель, Никита Камаев, Григорий Родченков

О фильме:
When Bryan Fogel sets out to uncover the truth about doping in sports, a chance meeting with a Russian scientist transforms his story from a personal experiment into a geopolitical thriller...

Фильм рассказывает о спортсмене, который решил детально разобраться в системах допинга и обратился за помощью к известному российскому специалисту. Вместе они проводили свои эксперименты и выясняли, как можно обмануть различные тесты на допинг, пока не оказались в самом центре глобального скандала, последствием которого стало исключение российских спортсменов из Олимпийских игр в Рио-де-Жанейро.

rating

Качество: WEBRip 1080p
Формат: MKV
Видео: 1920x1080p, 23.976 fps, ~ 9899 kbps avg
Аудио 1: 48 kHz, AC3 Dolby Digital, 3/2 (L,C,R,l,r) + LFE ch, ~384 kbps [UKR]
Аудио 2: 48 kHz, AC3 Dolby Digital, 3/2 (L,C,R,l,r) + LFE ch, ~384 kbps [ENG]

General
Unique ID : 187952235134819515995982288687076478915 (0x8D6648A58C5AB284851B5BB1FCA00FC3)
Complete name : E:\Icarus (2017) [ukr,eng] WEBRip 1080p [Hurtom].mkv
Format : Matroska
Format version : Version 4 / Version 2
File size : 9.03 GiB
Duration : 2 h 1 min
Overall bit rate : 10.7 Mb/s
Encoded date : UTC 2017-10-28 14:54:15
Writing application : mkvmerge v9.9.0 ('Pick Up') 64bit
Writing library : libebml v1.3.4 + libmatroska v1.4.5

Video
ID : 1
Format : AVC
Format/Info : Advanced Video Codec
Format profile : High@L4.1
Format settings : CABAC / 4 Ref Frames
Format settings, CABAC : Yes
Format settings, RefFrames : 4 frames
Codec ID : V_MPEG4/ISO/AVC
Duration : 2 h 1 min
Bit rate : 9 689 kb/s
Width : 1 920 pixels
Height : 1 080 pixels
Display aspect ratio : 16:9
Frame rate mode : Constant
Frame rate : 23.976 (24000/1001) FPS
Color space : YUV
Chroma subsampling : 4:2:0
Bit depth : 8 bits
Scan type : Progressive
Bits/(Pixel*Frame) : 0.195
Stream size : 8.20 GiB (91%)
Writing library : x264 core 152 r2851 ba24899
Encoding settings : cabac=1 / ref=4 / deblock=1:-3:-3 / analyse=0x3:0x113 / me=umh / subme=8 / psy=1 / psy_rd=1.00:0.15 / mixed_ref=1 / me_range=16 / chroma_me=1 / trellis=2 / 8x8dct=1 / cqm=0 / deadzone=21,11 / fast_pskip=0 / chroma_qp_offset=-2 / threads=12 / lookahead_threads=2 / sliced_threads=0 / nr=0 / decimate=1 / interlaced=0 / bluray_compat=0 / constrained_intra=0 / bframes=3 / b_pyramid=2 / b_adapt=1 / b_bias=0 / direct=3 / weightb=1 / open_gop=0 / weightp=2 / keyint=240 / keyint_min=23 / scenecut=40 / intra_refresh=0 / rc_lookahead=50 / rc=crf / mbtree=1 / crf=17.0 / qcomp=0.60 / qpmin=0 / qpmax=69 / qpstep=4 / ip_ratio=1.40 / aq=3:0.80
Language : English
Default : Yes
Forced : No

Audio #1
ID : 2
Format : AC-3
Format/Info : Audio Coding 3
Format settings, Endianness : Big
Codec ID : A_AC3
Duration : 2 h 1 min
Bit rate mode : Constant
Bit rate : 384 kb/s
Channel(s) : 6 channels
Channel positions : Front: L C R, Side: L R, LFE
Sampling rate : 48.0 kHz
Frame rate : 31.250 FPS (1536 SPF)
Bit depth : 16 bits
Compression mode : Lossy
Stream size : 333 MiB (4%)
Title : MVO Omikron studio
Language : Ukrainian
Service kind : Complete Main
Default : Yes
Forced : No

Audio #2
ID : 3
Format : AC-3
Format/Info : Audio Coding 3
Format settings, Endianness : Big
Codec ID : A_AC3
Duration : 2 h 1 min
Bit rate mode : Constant
Bit rate : 384 kb/s
Channel(s) : 6 channels
Channel positions : Front: L C R, Side: L R, LFE
Sampling rate : 48.0 kHz
Frame rate : 31.250 FPS (1536 SPF)
Bit depth : 16 bits
Compression mode : Lossy
Stream size : 333 MiB (4%)
Language : English
Service kind : Complete Main
Default : No
Forced : No

Text #1
ID : 4
Format : UTF-8
Codec ID : S_TEXT/UTF8
Codec ID/Info : UTF-8 Plain Text
Language : Ukrainian
Default : No
Forced : No

Text #2
ID : 5
Format : UTF-8
Codec ID : S_TEXT/UTF8
Codec ID/Info : UTF-8 Plain Text
Language : English
Default : No
Forced : No
скриншот  скриншот  скриншот  
piratbit.org



Скачать Икар через торрент http://i102.fastpic.ru/big/2018/0306/40/4148fc5b372e77c096dd39fc81ad8240.jpg Скачать фильм Икар через торрент бесплантно в хорошем качестве О фильме: When Bryan Fogel sets out to uncover the truth about doping in sports, a chance meeting with a Russian scientist transforms his ... 8 10 10
Info! Золотая раздача, скачанное не засчитывается.
Торрент: Зарегистрирован [2018-03-06 15:51] · скачан: 38 раз
Статус: √ проверено
Размер: 9.03 GB
Как cкачать? Как скачать Икар через торрент | UTorrent

% Раздел Тема Автор DL S | L
Документальные фильмы и телепередачи [ 8.94 GB ] Икар / Icarus [2017 Документальный WEB-DL 1080p] MVO bober100 Скачать
1 | 0
Фильмы 2010 [ 1.37 GB ] Икарус / Icarus [2010 DVDRip] DEVI Скачать
1 | 0
Фильмы 2010 [ 738 MB ] Икарус / Icarus [2010 DVDRip] aspace Скачать
1 | 0
Фильмы 2010 [ 1.87 GB ] Икарус / Icarus [2010 BDRip] Virtus Скачать
1 | 0

28-11-2019 20:33  

Отключить всю рекламу на сайте

    Дорогой пользователь! Огромная просьба, поблагодарите релизера, оцените раздачу и оставьте свои комментарий, если Вы скачали Икар через торрент бесплатно! Внесите свою лепту в развитие PiratBit!
    Комментировать посты могут только пользователи прошедшие не сложную регистрацию
    Показать сообщения:    

    Икар через торрент
    Скачать бесплатно Икар
    Икар скачать торрент
    Икар смотреть онлайн
    Cкачать фильм Икар бесплатно
    Икар скачать торрент в хорошем качестве
    Икар смотреть онлайн бесплатно в хорошем качестве


    Вы не можете начинать темы
    Вы не можете отвечать на сообщения
    Вы не можете редактировать свои сообщения
    Вы не можете удалять свои сообщения
    Вы не можете голосовать в опросах
    Вы не можете прикреплять файлы к сообщениям
    Вы можете скачивать файлы