1 сезон

iTunes

iTunes

1

Line

MVO

iTunes

13

1 сезон

RePack

30

Deluxe

pack

Лицензия

ВАЖНО

ИГРА 18+

pack

RePack

MK11

RePack

jed

RePack

fifa19

RePack

RDR2

RePack

NEED FOR SPEED™ PAYBACK

4 сезон

9 сезон

Бесстыжие 9 сезон

Все сериалы

все сериалы на PB.wtf

RePack

FAR CRY 5

Anonymous, доброе утро, мы катастрофически не успеваем собрать деньги на оплату серверов, помогите нам пожалуйста 5,10,15р., для нас важна любая помощь . В качестве благодарности мы отключим Вам всю рекламу на сайте (укажите свой ник в строку Ваше имя)!

×
  
Magnet ссылка

Безумные скачки: Афера Мандраке / Febbre da cavallo - La mandrakata (Карло Ванцина) [2002 г., Комедия, DVDRip-AVC, Профессиональный (многоголосый)] от ExKinoRay piratbit.org

Безумные скачки: Афера Мандраке через торрент piratbit.org

Размер: 2.58 GB | Добавлен: 3 года 4 мес. назад | Торрент скачан:6 раз
Скачать  

06-03-2018 17:59 Безумные скачки: Афера Мандраке Скачать торрент  

Безумные скачки: Афера Мандраке / Febbre da cavallo - La mandrakata
Год выпуска: 2002
Страна: Италия
Жанр: Комедия
Продолжительность: 01:41:17
Перевод: Профессиональный (многоголосый)

Режиссер: Карло Ванцина

Премьера в мире: 31 октября 2002

rating

В ролях: Джиджи Пройетти, Нэнси Брилли, Андреа Асколезе, Карло Буччироссо, Эмануэла Гримальда, Стефано Амброджи, Чезаре Джелли, Родольфо Лагана, Джеа Мартире, Энрико Монтезан

Описание: Плут и мошенник Бруно Фиоретти по прозвищу Мандраке помешан на конских скачках. Вместе со своими приятелями Марко и Инженером он пытается выиграть, используя компьютерный прогноз, составленный Инженером. Но все заработанные деньги забирает их кредитор — Черный Мидийщик.
Они берут в свою кампанию обманутого ими Антонио и актрису Аурелиа. Мандраке задумывает крупную аферу с подменой лошади и, в конце концов, они срывают крупный куш. Но тут появляется хозяин лошади и забирает все деньги. Плутишки опять на мели, но они не унывают, надеясь на удачу, ведь игра — их жизнь…

Качество: DVDRip-AVC
Формат: MKV
Видео кодек: MPEG4
Аудио кодек: AC3
Видео: MPEG-4 AVC, 3000 Кбит/с, 716x572@1018x572, 25 кадров/сек
Аудио#1: Русский (AC3, 2 ch, 192 Кбит/с, 48 КГц)
Аудио#2: Итальянский (AC3, 6 ch, 448 Кбит/с, 48 КГц)
Релиз от:




raw [info]: 716x572p 64:45 @ 25/1 fps (cfr)
x264 [info]: using SAR=64/45
x264 [info]: using cpu capabilities: MMX2 SSE2Fast LZCNT
x264 [info]: profile High, level 4.1
x264 [info]: frame I:1072 Avg QP:17.77 size: 72559
x264 [info]: frame P:31981 Avg QP:20.32 size: 30830
x264 [info]: frame B:118895 Avg QP:21.95 size: 10223
x264 [info]: consecutive B-frames: 1.4% 1.8% 7.6% 22.5% 15.2% 40.2% 9.8% 0.6% 0.2% 0.4% 0.0% 0.0% 0.1% 0.0% 0.0% 0.0% 0.0%
-----
Общее
Уникальный идентификатор : 198973281791867093782565801913886353515 (0x95B0DC3306AACF86AAE5D1FE5906A86B)
Полное имя : D:\ExKinoRay\Mandrakata.2002.DVDRip-AVC.ExKinoRay.mkv
Формат : Matroska
Версия формата : Version 2
Размер файла : 2,58 Гбайт
Продолжительность : 1 ч. 41 м.
Общий поток : 3642 Кбит/сек
Дата кодирования : UTC 2018-03-06 15:24:43
Программа кодирования : mkvmerge v7.8.0 ('River Man') 32bit built on Apr 3 2015 12:11:22
Библиотека кодирования : libebml v1.3.1 + libmatroska v1.4.2

Видео
Идентификатор : 1
Формат : AVC
Формат/Информация : Advanced Video Codec
Профиль формата : High@L4.1
Параметр CABAC формата : Да
Параметр ReFrames формата : 14 кадров
Идентификатор кодека : V_MPEG4/ISO/AVC
Продолжительность : 1 ч. 41 м.
Битрейт : 3000 Кбит/сек
Ширина : 716 пикселей
Высота : 572 пикселя
Соотношение сторон : 16:9
Режим частоты кадров : Постоянный
Частота кадров : 25,000 кадров/сек
Цветовое пространство : YUV
Субдискретизация насыщенности : 4:2:0
Битовая глубина : 8 бит
Тип развёртки : Прогрессивная
Бит/(Пиксели*Кадры) : 0.293
Размер потока : 2,07 Гбайт (80%)
Библиотека кодирования : x264 core 148 r2638 7599210
Настройки программы : cabac=1 / ref=14 / deblock=1:-2:-2 / analyse=0x3:0x133 / me=umh / subme=10 / psy=1 / psy_rd=1.05:0.15 / mixed_ref=1 / me_range=32 / chroma_me=1 / trellis=2 / 8x8dct=1 / cqm=0 / deadzone=21,11 / fast_pskip=0 / chroma_qp_offset=-3 / threads=4 / lookahead_threads=1 / sliced_threads=0 / nr=0 / decimate=0 / interlaced=0 / bluray_compat=0 / constrained_intra=0 / bframes=16 / b_pyramid=2 / b_adapt=2 / b_bias=0 / direct=3 / weightb=1 / open_gop=0 / weightp=2 / keyint=250 / keyint_min=25 / scenecut=40 / intra_refresh=0 / rc=2pass / mbtree=0 / bitrate=3000 / ratetol=1.0 / qcomp=0.60 / qpmin=0 / qpmax=69 / qpstep=4 / cplxblur=20.0 / qblur=0.5 / ip_ratio=1.40 / pb_ratio=1.30 / aq=1:1.00
Язык : English
Default : Да
Forced : Нет
Цветовой диапазон : Limited
Основные цвета : BT.601 NTSC
Характеристики трансфера : BT.601
Коэффициенты матрицы : BT.601

Аудио #1
Идентификатор : 2
Формат : AC-3
Формат/Информация : Audio Coding 3
Расширение режима : CM (complete main)
Параметр Endianness формата : Big
Идентификатор кодека : A_AC3
Продолжительность : 1 ч. 41 м.
Вид битрейта : Постоянный
Битрейт : 192 Кбит/сек
Каналы : 2 канала
Расположение каналов : Front: L R
Частота : 48,0 КГц
Частота кадров : 31,250 кадров/сек (1536 spf)
Метод сжатия : С потерями
Размер потока : 139 Мбайт (5%)
Заголовок : ГТРК Россия
Язык : Russian
Default : Да
Forced : Нет

Аудио #2
Идентификатор : 3
Формат : AC-3
Формат/Информация : Audio Coding 3
Расширение режима : CM (complete main)
Параметр Endianness формата : Big
Идентификатор кодека : A_AC3
Продолжительность : 1 ч. 41 м.
Вид битрейта : Постоянный
Битрейт : 448 Кбит/сек
Каналы : 6 каналов
Расположение каналов : Front: L C R, Side: L R, LFE
Частота : 48,0 КГц
Частота кадров : 31,250 кадров/сек (1536 spf)
Метод сжатия : С потерями
Размер потока : 325 Мбайт (12%)
Язык : Italian
Default : Нет
Forced : Нет

piratbit.org



Скачать Безумные скачки: Афера Мандраке через торрент http://c.radikal.ru/c14/1803/a5/fb19e08d37c3.jpg Скачать фильм Безумные скачки: Афера Мандраке через торрент бесплантно в хорошем качестве Описание: Плут и мошенник Бруно Фиоретти по прозвищу Мандраке помешан на конских скачках. Вместе со своими приятелями Марко и Инженером он ... 5 10 1
Info! Золотая раздача, скачанное не засчитывается.
Торрент: Зарегистрирован [2018-03-06 17:59] · скачан: 6 раз
Статус: √ проверено
Размер: 2.58 GB
Как cкачать? Как скачать Безумные скачки: Афера Мандраке через торрент | UTorrent

28-11-2019 20:33  

Отключить всю рекламу на сайте

    Дорогой пользователь! Огромная просьба, поблагодарите релизера, оцените раздачу и оставьте свои комментарий, если Вы скачали Безумные скачки: Афера Мандраке через торрент бесплатно! Внесите свою лепту в развитие PiratBit!
    Комментировать посты могут только пользователи прошедшие не сложную регистрацию
    Показать сообщения:    

    Безумные скачки: Афера Мандраке через торрент
    Скачать бесплатно Безумные скачки: Афера Мандраке
    Безумные скачки: Афера Мандраке скачать торрент
    Безумные скачки: Афера Мандраке смотреть онлайн
    Cкачать фильм Безумные скачки: Афера Мандраке бесплатно
    Безумные скачки: Афера Мандраке скачать торрент в хорошем качестве
    Безумные скачки: Афера Мандраке смотреть онлайн бесплатно в хорошем качестве


    Вы не можете начинать темы
    Вы не можете отвечать на сообщения
    Вы не можете редактировать свои сообщения
    Вы не можете удалять свои сообщения
    Вы не можете голосовать в опросах
    Вы не можете прикреплять файлы к сообщениям
    Вы можете скачивать файлы