2 сезон

iTunes

WEBRip

1

2 сезон

iTunes

1 сезон

1 сезон

RePack

30

Ultimate

ВАЖНО

ИГРА 18+

pack

RePack

MK11
pack

Легкие деньги

RePack

jed

RePack

fifa19

RePack

RDR2

RePack

NEED FOR SPEED™ PAYBACK

4 сезон

9 сезон

Бесстыжие 9 сезон

Все сериалы

все сериалы на PB.wtf

RePack

FAR CRY 5

Anonymous, доброй ночи, мы не успеваем собрать деньги на оплату серверов за февраль, помогите нам пожалуйста в это трудное время. В качестве благодарности мы отключим Вам всю рекламу на сайте (укажите свой ник в строку Ваше имя)!

×
  
Magnet ссылка

Киборги / Кіборги (Ахтем Сейтаблаев) [2017, военный, драма, детектив, WEB-DLRip 720p] [Ukr] piratbit.org

Киборги через торрент piratbit.org

Размер: 3.99 GB | Добавлен: 2 года 11 мес. назад | Торрент скачан:182 раза
Скачать  

09-03-2018 06:15 Киборги Скачать торрент  

Киборги / Кіборги
««Heroes Never Die»»

Год выпуска: 2017
Страна: Украина
Жанр: военный, драма, детектив

Продолжительность: 01:52:40
Перевод: Оригинальный (украинский)
Субтитры: Украинские (вшитые, на русскую речь)
В ролях:
Вячеслав Довженко, Макар Тихомиров, Андрей Исаенко, Александр Пискунов, Константин Темляк, Роман Семисал, Виктор Жданов, Наталья Мосейчук, Александр Загородний, Роман Ясиновский
Описание:
История разворачивается в течение двухнедельного дежурства в аэропорту одного батальона в сентябре 2014 года. Добровольческая группа впервые приезжает в горячую точку, которая уже четыре месяца держит оборону, и лицом к лицу сталкивается со страшным лицом войны.
Рейтинг:

Качество: WEB-DLRip 720p
Формат: MKV
Видео: AVC, 1280x536 (2.40:1), 4617 kbps, 24 fps, 0,280 bpp
Аудио: украинский / AC3 / 5.1 / 48 kHz / 448 kbps /
General
Unique ID : 225687945361885040585975746618588072240 (0xA9C9EACE02A64F1BA47AD5D2893F0930)
Complete name : E:\Cyborgs.2017.WEB-DLRip.(720p).mkv
Format : Matroska
Format version : Version 4 / Version 2
File size : 3.99 GiB
Duration : 1 h 52 min
Overall bit rate : 5 065 kb/s
Movie name : Кіборги: Герої не вмирають (2017)
Encoded date : UTC 2018-02-21 22:21:58
Writing application : mkvmerge v6.9.1 ('Blue Panther') 64bit built on Apr 18 2014 18:23:38
Writing library : libebml v1.3.0 + libmatroska v1.4.1

Video
ID : 1
Format : AVC
Format/Info : Advanced Video Codec
Format profile : High@L4.1
Format settings, CABAC : Yes
Format settings, ReFrames : 12 frames
Codec ID : V_MPEG4/ISO/AVC
Duration : 1 h 52 min
Bit rate : 4 617 kb/s
Width : 1 280 pixels
Height : 536 pixels
Display aspect ratio : 2.40:1
Frame rate mode : Constant
Frame rate : 24.000 FPS
Color space : YUV
Chroma subsampling : 4:2:0
Bit depth : 8 bits
Scan type : Progressive
Bits/(Pixel*Frame) : 0.280
Stream size : 3.55 GiB (89%)
Title : Кіборги: Герої не вмирають (2017)
Writing library : x264 core 148 r2744 b97ae06
Encoding settings : cabac=1 / ref=12 / deblock=1:-3:-3 / analyse=0x3:0x133 / me=umh / subme=11 / psy=1 / psy_rd=1.00:0.00 / mixed_ref=1 / me_range=32 / chroma_me=1 / trellis=2 / 8x8dct=1 / cqm=0 / deadzone=21,11 / fast_pskip=1 / chroma_qp_offset=-2 / threads=6 / lookahead_threads=1 / sliced_threads=0 / nr=0 / decimate=1 / interlaced=0 / bluray_compat=0 / constrained_intra=0 / bframes=16 / b_pyramid=2 / b_adapt=2 / b_bias=0 / direct=3 / weightb=1 / open_gop=0 / weightp=2 / keyint=240 / keyint_min=24 / scenecut=40 / intra_refresh=0 / rc_lookahead=60 / rc=2pass / mbtree=1 / bitrate=4617 / ratetol=1.0 / qcomp=0.60 / qpmin=0 / qpmax=69 / qpstep=4 / cplxblur=20.0 / qblur=0.5 / vbv_maxrate=50000 / vbv_bufsize=62500 / nal_hrd=none / filler=0 / ip_ratio=1.40 / aq=1:1.00
Language : Ukrainian
Default : Yes
Forced : No

Audio
ID : 2
Format : AC-3
Format/Info : Audio Coding 3
Mode extension : CM (complete main)
Format settings, Endianness : Big
Codec ID : A_AC3
Duration : 1 h 52 min
Bit rate mode : Constant
Bit rate : 448 kb/s
Channel(s) : 6 channels
Channel positions : Front: L C R, Side: L R, LFE
Sampling rate : 48.0 kHz
Frame rate : 31.250 FPS (1536 spf)
Compression mode : Lossy
Stream size : 361 MiB (9%)
Title : AC3, 6 ch, 448 Kbps, Original
Language : Ukrainian
Default : Yes
Forced : No
piratbit.org



Скачать Киборги через торрент http://i103.fastpic.ru/big/2018/0309/fc/6b3e6875a9bebc85229860058a5c90fc.jpg Скачать фильм Киборги через торрент бесплантно в хорошем качестве Описание: История разворачивается в течение двухнедельного дежурства в аэропорту одного батальона в сентябре 2014 года. Добровольческая ... 6.1 10 16
Info! Золотая раздача, скачанное не засчитывается.
Торрент: Зарегистрирован [2018-03-09 06:15] · скачан: 182 раз
Статус: √ проверено
Размер: 3.99 GB
Как cкачать? Как скачать Киборги через торрент | UTorrent

% Раздел Тема Автор DL S | L
Фильмы с украинским озвучиванием [ 2.05 GB ] Киборги / Кіборги [2017 военный WEB-DLRip] [Ukr Rus] Twi7ter Скачать
1 | 0
Фильмы с украинским озвучиванием [ 1.46 GB ] Киборги / Кіборги [2017 военный WEB-DLRip] [Ukr Rus] Twi7ter Скачать
1 | 0
T Фильмы с украинским озвучиванием [ 12.04 GB ] Киборги / Кіборги [2017 военный WEB-DL 1080p] [Ukr] killermax2013 Скачать
1 | 0

28-11-2019 20:33  

Отключить всю рекламу на сайте

09-03-2018 06:25 Киборги Скачать торрент  

А причём здесь название "киборги" к военной теме? Где импланты?piratbit.org



09-03-2018 07:06 Киборги Скачать торрент  

ха киборги б-яpiratbit.org



09-03-2018 07:12 Киборги Скачать торрент  

YRBALAY писал(а):

А причём здесь название "киборги" к военной теме? Где импланты?

дело не в имплантах, а в том как что сепаратисты их сами назвали киборгами. был репортаж и они говорили чтото в этом духе "там воюют не люди, а американские роботы-киборги".piratbit.org



09-03-2018 07:20 Киборги Скачать торрент  

sanek80, ознакомьтесь, пожалуйста, с Правилами оформления раздач в разделе «Фильмов»
Учитывая, что это ваша первая раздача на нашем трекере, оформление поправил.piratbit.org



09-03-2018 07:21 Киборги Скачать торрент  

Топик был перенесен из форума Оформление раздач (Кино, Видео и ТВ) в форум Фильмы с украинским озвучиванием


-Lexx-piratbit.org



    Дорогой пользователь! Огромная просьба, поблагодарите релизера, оцените раздачу и оставьте свои комментарий, если Вы скачали Киборги через торрент бесплатно! Внесите свою лепту в развитие PiratBit!
    Комментировать посты могут только пользователи прошедшие не сложную регистрацию
    Показать сообщения:    

    Киборги через торрент
    Скачать бесплатно Киборги
    Киборги скачать торрент
    Киборги смотреть онлайн
    Cкачать фильм Киборги бесплатно
    Киборги скачать торрент в хорошем качестве
    Киборги смотреть онлайн бесплатно в хорошем качестве


    Вы не можете начинать темы
    Вы не можете отвечать на сообщения
    Вы не можете редактировать свои сообщения
    Вы не можете удалять свои сообщения
    Вы не можете голосовать в опросах
    Вы не можете прикреплять файлы к сообщениям
    Вы можете скачивать файлы