Достать ножи: Стеклянная луковица

MVO

Добыча

Дубляж

Уэнсдэй

1 сезон

Тор

Дубляж

13 клиническая

1 сезон

Жестокая ночь

MVO

Одни из нас

1 сезон

Deluxe

pack

Рекомендуем

30

Пиратка

ВАЖНО

ВАЖНО

Ghostwire

Пиратка

jed

RePack

nioh2

RePack

RDR2

RePack

NEED FOR SPEED™ PAYBACK

RePack

скачать торрент

Кинопоиск HD

Острые козырьки 6 сезон

6 сезон

FAR CRY 6

RePack

скачать торрент

Лицензия

скачать торрент

MVO

1

1 сезон

скачать торрент

1 сезон

скачать торрент

Лицензия

  

Джуманджи: Зов джунглей / Jumanji: Welcome to the Jungle (Джейк Кэздан) [2017, фэнтези, боевик, комедия, приключения, семейный, UHD WEBRip 2160p] Дубляж [iTunes]

Джуманджи: Зов джунглей через торрент piratbit.org

Размер: 25.95 GB | Добавлен: 4 года 10 мес. назад | Торрент скачан:160 раз
Смотреть онлайн | Скачать | Поддержите нас   

17-03-2018 01:41 Джуманджи: Зов джунглей Скачать торрент  

Джуманджи: Зов джунглей / Jumanji: Welcome to the Jungle
Год выпуска: 2017
Страна: США
Жанр: фэнтези, боевик, комедия, приключения, семейный
Продолжительность: 01:59:03
Перевод: Дубляж - iTunes
Субтитры: Русские (Форсированные, полные), английские (Full, SDH, Full+colored)

Режиссер: Джейк Кэздан

rating

В ролях:

Дуэйн Джонсон, Кевин Харт, Джек Блэк, Карен Гиллан, Риз Дэрби, Бобби Каннавале, Ник Джонас, Алекс Вулф, Сер Дариус Блэйн, Мэдисон Исман

Описание:

Четверо подростков оказываются внутри игры «Джуманджи». Их ждет схватка с носорогами, черными мамбами, а на каждом шагу будет подстерегать бесконечная череда ловушек и головоломок. Чтобы пройти игру и остаться в живых, им придется перевоплотиться в персонажей игры: робкий и застенчивый Спенсер превращается в отважного и сильного исследователя, здоровяк Фридж - в коротышку, модница и красавица Беттани - в профессора, а неуклюжая и нескладная Марта становится бесстрашной и ловкой амазонкой. Друзьям придется привыкнуть к совершенно новым и таким непривычным для себя ролям и найти дорогу домой.

Качество: UHD WEBRip 2160p
Формат: MKV

Видео: HEVC, 26.3 Mбит/с, 3840x1606, 23.976 кадр/с
Аудио#1: 48 kHz, AC3, 5.1, 384 Kbps | Дублированный | iTunes | RUS |
Аудио#2: DTS-HD MA, 8 ch, 3840 Кбит/с | Оригинал | ENG |
Аудио#3: 48 kHz, AC3, 5.1, 640 Kbps | Оригинал |
ENG |
скриншот  скриншот  скриншот  скриншот  скриншот  скриншот  

General
Unique ID : 304444391210539408453384284905759962882 (0xE509DB60A30B9520E89653C00251F702)
Complete name : D:uTorrentJumanji_zov.dzhunglri.2017.BDRip.2160p.SDR.MediaClub.mkv
Format : Matroska
Format version : Version 4 / Version 2
File size : 26.0 GiB
Duration : 1 h 59 min
Overall bit rate : 31.2 Mb/s
Encoded date : UTC 2018-03-16 20:04:45
Writing application : mkvmerge v19.0.0 ('Brave Captain') 64-bit
Writing library : libebml v1.3.5 + libmatroska v1.4.8
Cover : Yes
Attachments : cover.jpg

Video
ID : 1
Format : HEVC
Format/Info : High Efficiency Video Coding
Format profile : Main 10@L5.1@High
Codec ID : V_MPEGH/ISO/HEVC
Duration : 1 h 59 min
Bit rate : 26.3 Mb/s
Width : 3 840 pixels
Height : 1 606 pixels
Display aspect ratio : 2.40:1
Frame rate mode : Constant
Frame rate : 23.976 (24000/1001) FPS
Color space : YUV
Chroma subsampling : 4:2:0
Bit depth : 10 bits
Bits/(Pixel*Frame) : 0.178
Stream size : 21.9 GiB (84%)
Title : BDRip.2160p.SDR by Silverok
Writing library : x265 2.5+4-b4a5bcfe29c7:[Windows][GCC 4.9.3][64 bit] 10bit
Encoding settings : cpuid=1173503 / frame-threads=16 / numa-pools=24,24,24,24 / wpp / no-pmode / no-pme / no-psnr / no-ssim / log-level=2 / input-csp=1 / input-res=3840x1606 / interlace=0 / total-frames=0 / level-idc=51 / high-tier=1 / uhd-bd=0 / ref=3 / no-allow-non-conformance / repeat-headers / annexb / aud / hrd / info / hash=0 / no-temporal-layers / no-open-gop / min-keyint=1 / keyint=24 / bframes=4 / b-adapt=2 / b-pyramid / bframe-bias=0 / rc-lookahead=25 / lookahead-slices=4 / scenecut=40 / no-intra-refresh / ctu=64 / min-cu-size=8 / no-rect / no-amp / max-tu-size=32 / tu-inter-depth=1 / tu-intra-depth=1 / limit-tu=0 / rdoq-level=0 / dynamic-rd=0.00 / no-ssim-rd / signhide / no-tskip / nr-intra=0 / nr-inter=0 / no-constrained-intra / strong-intra-smoothing / max-merge=2 / limit-refs=3 / no-limit-modes / me=1 / subme=2 / merange=57 / temporal-mvp / weightp / no-weightb / no-analyze-src-pics / deblock=0:0 / no-sao / no-sao-non-deblock / rd=3 / no-early-skip / rskip / no-fast-intra / no-tskip-fast / no-cu-lossless / no-b-intra / rdpenalty=0 / psy-rd=2.00 / psy-rdoq=0.00 / no-rd-refine / analysis-reuse-mode=0 / no-lossless / cbqpoffs=0 / crqpoffs=0 / rc=crf / crf=16.0 / qcomp=0.60 / qpstep=4 / stats-write=0 / stats-read=0 / vbv-maxrate=160000 / vbv-bufsize=160000 / vbv-init=0.9 / crf-max=0.0 / crf-min=0.0 / ipratio=1.40 / pbratio=1.30 / aq-mode=1 / aq-strength=1.00 / cutree / zone-count=0 / no-strict-cbr / qg-size=32 / no-rc-grain / qpmax=69 / qpmin=0 / no-const-vbv / sar=1 / overscan=0 / videoformat=5 / range=0 / colorprim=2 / transfer=2 / colormatrix=2 / chromaloc=0 / display-window=0 / max-cll=0,0 / min-luma=0 / max-luma=1023 / log2-max-poc-lsb=8 / vui-timing-info / vui-hrd-info / slices=1 / opt-qp-pps / opt-ref-list-length-pps / no-multi-pass-opt-rps / scenecut-bias=0.05 / no-opt-cu-delta-qp / no-aq-motion / no-hdr / no-hdr-opt / no-dhdr10-opt / analysis-reuse-level=5 / scale-factor=0 / refine-intra=0 / refine-inter=0 / refine-mv=0 / no-limit-sao / ctu-info=0
Default : Yes
Forced : No

Audio #1
ID : 2
Format : AC-3
Format/Info : Audio Coding 3
Codec ID : A_AC3
Duration : 1 h 59 min
Bit rate mode : Constant
Bit rate : 384 kb/s
Channel(s) : 6 channels
Channel positions : Front: L C R, Side: L R, LFE
Sampling rate : 48.0 kHz
Frame rate : 31.250 FPS (1536 SPF)
Bit depth : 16 bits
Compression mode : Lossy
Stream size : 327 MiB (1%)
Title : Дублированный (iTunes)
Language : Russian
Service kind : Complete Main
Default : Yes
Forced : No

Audio #2
ID : 3
Format : DTS
Format/Info : Digital Theater Systems
Format profile : MA / Core
Codec ID : A_DTS
Duration : 1 h 59 min
Bit rate mode : Variable / Constant
Bit rate : 3 840 kb/s / 1 509 kb/s
Channel(s) : 8 channels / 6 channels
Channel positions : Front: L C R, Side: L R, Back: L R, LFE / Front: L C R, Side: L R, LFE
Sampling rate : 48.0 kHz
Frame rate : 93.750 FPS (512 SPF)
Bit depth : 24 bits
Compression mode : Lossless / Lossy
Stream size : 3.23 GiB (12%)
Language : English
Default : No
Forced : No

Audio #3
ID : 9
Format : AC-3
Format/Info : Audio Coding 3
Codec ID : A_AC3
Duration : 1 h 59 min
Bit rate mode : Constant
Bit rate : 640 kb/s
Channel(s) : 6 channels
Channel positions : Front: L C R, Side: L R, LFE
Sampling rate : 48.0 kHz
Frame rate : 31.250 FPS (1536 SPF)
Bit depth : 16 bits
Compression mode : Lossy
Stream size : 545 MiB (2%)
Language : English
Service kind : Complete Main
Default : No
Forced : No

Text #1
ID : 4
Format : UTF-8
Codec ID : S_TEXT/UTF8
Codec ID/Info : UTF-8 Plain Text
Duration : 1 h 0 min
Bit rate : 1 b/s
Count of elements : 16
Stream size : 671 Bytes (0%)
Title : Forced
Language : Russian
Default : Yes
Forced : Yes

Text #2
ID : 5
Format : UTF-8
Codec ID : S_TEXT/UTF8
Codec ID/Info : UTF-8 Plain Text
Duration : 1 h 57 min
Bit rate : 95 b/s
Count of elements : 1577
Stream size : 82.2 KiB (0%)
Title : Full
Language : Russian
Default : No
Forced : No

Text #3
ID : 6
Format : UTF-8
Codec ID : S_TEXT/UTF8
Codec ID/Info : UTF-8 Plain Text
Duration : 1 h 48 min
Bit rate : 65 b/s
Count of elements : 1803
Stream size : 52.4 KiB (0%)
Title : Full
Language : English
Default : No
Forced : No

Text #4
ID : 7
Format : UTF-8
Codec ID : S_TEXT/UTF8
Codec ID/Info : UTF-8 Plain Text
Duration : 1 h 49 min
Bit rate : 72 b/s
Count of elements : 2103
Stream size : 58.0 KiB (0%)
Title : SDH
Language : English
Default : No
Forced : No

Text #5
ID : 8
Format : UTF-8
Codec ID : S_TEXT/UTF8
Codec ID/Info : UTF-8 Plain Text
Duration : 1 h 49 min
Bit rate : 122 b/s
Count of elements : 2103
Stream size : 98.9 KiB (0%)
Title : Full+colored
Language : English
Default : No
Forced : No

Menu
00:00:00.000 : en:Chapter 1
00:07:18.104 : en:Chapter 2
00:17:15.993 : en:Chapter 3
00:23:23.235 : en:Chapter 4
00:29:24.971 : en:Chapter 5
00:42:28.546 : en:Chapter 6
00:47:11.161 : en:Chapter 7
00:54:26.721 : en:Chapter 8
01:03:20.838 : en:Chapter 9
01:10:21.800 : en:Chapter 10
01:15:51.672 : en:Chapter 11
01:24:10.086 : en:Chapter 12
01:28:20.295 : en:Chapter 13
01:33:48.414 : en:Chapter 14
01:42:22.886 : en:Chapter 15
01:48:31.838 : en:Chapter 16




Скачать Джуманджи: Зов джунглей через торрент https://pic1.kartinco.top/images/11/fmwiw.jpg Скачать, смотреть онлайн Джуманджи: Зов джунглей бесплантно в хорошем качестве Описание: Четверо подростков оказываются внутри игры «Джуманджи». Их ждет схватка с носорогами, черными мамбами, а на каждом шагу будет ... 7.7 10 6
Торрент: Зарегистрирован [2018-03-17 01:41] · скачан: 160 раз
Статус: √ проверено
Размер: 25.95 GB
Как cкачать? Как скачать Джуманджи: Зов джунглей через торрент | UTorrent

% Раздел Тема Автор DL S | L
Фильмы (HD 720p, 1080p) (48-60 fps) [ 5.23 GB ] Джуманджи: Зов джунглей / Jumanji: Welcome to the Jungle | Дубляж | DLRip 720p / 60 FPS slaventi-69 Скачать
1 | 1
3D Фильмы [ 6.9 GB ] Джуманджи: Зов джунглей в 3D / Jumanji: Welcome to the Jungle in 3D | Дубляж | 1080p, Дубляж slaventi-69 Скачать
1 | 1
Фильмы (HD 720p, 1080p) (48-60 fps) [ 3.93 GB ] Джуманджи: Зов джунглей / Jumanji: Welcome to the Jungle | Дубляж | 720p / 60 FPS slaventi-69 Скачать
1 | 0
Ultra HD (UHD: 2K, 4K, 8K) [ 39.6 GB ] Джуманджи: Зов джунглей / Jumanji: Welcome to the Jungle | DUB | 2160p sheker187 Скачать
1 | 0
Фильмы (HD 720p, 1080p) (48-60 fps) [ 12.14 GB ] Джуманджи: Зов джунглей / Jumanji: Welcome to the Jungle | Лицензия | 1080p, 60 fps bober100 Скачать
1 | 0
Фильмы (Blu-ray, BD-Remux, HDDVD) [ 27.06 GB ] Джуманджи: Зов джунглей / Jumanji: Welcome to the Jungle | DUB | 1080p sheker187 Скачать
1 | 1
Фильмы (Blu-ray, BD-Remux, HDDVD) [ 40.24 GB ] Джуманджи: Зов джунглей / Jumanji: Welcome to the Jungle | Лицензия | 1080p bober100 Скачать
1 | 0

28-11-2019 20:33  


Отключить вcю реклaмy на сайте, в т.ч. и в плеере онлайн просмотра!

    Дорогой пользователь! Огромная просьба, поблагодарите релизера, оцените раздачу и оставьте свои комментарий, если Вы скачали Джуманджи: Зов джунглей через торрент бесплатно!!
    Комментировать посты могут только пользователи прошедшие не сложную регистрацию
    Показать сообщения:    


    Джуманджи: Зов джунглей через торрент
    Скачать бесплатно Джуманджи: Зов джунглей
    Джуманджи: Зов джунглей скачать торрент
    Джуманджи: Зов джунглей смотреть онлайн
    Cкачать фильм Джуманджи: Зов джунглей бесплатно
    Джуманджи: Зов джунглей скачать торрент в хорошем качестве
    Джуманджи: Зов джунглей смотреть онлайн бесплатно в хорошем качестве
    Вы не можете начинать темы
    Вы не можете отвечать на сообщения
    Вы не можете редактировать свои сообщения
    Вы не можете удалять свои сообщения
    Вы не можете голосовать в опросах
    Вы не можете прикреплять файлы к сообщениям
    Вы можете скачивать файлы
    Джуманджи: Зов джунглей / Jumanji: Welcome to the Jungle [2017, фэнтези, боевик, комедия, приключения, семейный, UHD WEBRip 2160p] Дубляж [iTunes] смотреть онлайн, скачать торрент picoco.icu