Всегда рабочее зеркало просто перед .vidak.icu напиши любое слово или цифру, Пример http://snd.vidak.icu

>

7.4

iTunes

7.4

2 сезон

9.4

1 сезон

1

7.4

2 сезон

7.2

iTunes

6.0

MVO

13

6.1

iTunes

8.3

Пиратка

30

ULTIMATE

pack

9.9

Лицензия

ВАЖНО

ИГРА 18+

pack

7.3

RePack

MK11

7.7

RePack

jed

7.8

RePack

fifa19

8.5

RePack

RDR2

RePack

NEED FOR SPEED™ PAYBACK

1 сезон

9 сезон

Бесстыжие 9 сезон

Все сериалы

все сериалы на PB.wtf

RePack

FAR CRY 5

Anonymous, добрый день, мы катастрофически не успеваем собрать деньги на оплату серверов, помогите нам пожалуйста 5,10,15р., для нас важна любая помощь . В качестве благодарности мы отключим Вам всю рекламу на сайте (укажите свой ник в строку Ваше имя)!

×
  
Magnet ссылка

23.59 (Глеб Черепанов) [2016, триллер, WEB-DL 720p] piratbit.org

23.59 через торрент piratbit.org

Размер: 3 GB | Добавлен: 3 года 9 мес. назад | Торрент скачан:72 раза
Смотреть онлайн 23.59 | Скачать    Ребята, помогите собрать деньги на оплату серверов!!!

19-03-2018 11:57 23.59 Скачать торрент  

23.59Год выпуска: 2016
Страна: Россия
Жанр: триллер
Продолжительность: 01:29:27
Перевод: Не требуется Русский
Субтитры: отсутствуют

Режиссер: Глеб Черепанов



В ролях:

Никита Еленев, Яна Сексте, Екатерина Дурова, Артем Быстров, Артем Волобуев, Ирина Выборнова, Андрей Болсунов, Григорий Трапезников, Эдуард Кашпоров, Дарья Одинокина

Описание:

Проснувшись однажды утром после беспокойного сна, Он обнаруживает, что в день рождения Его никто не замечает. Друзья, коллеги, родные - никто не узнает и не поздравляет. А вместо праздника Он отправляется в фантасмагорическое путешествие - вроде бы не сон, но и не реальность. Это сутки, которые изменили Его мир. История одного невероятного исчезновения, в которое трудно поверить, но оно может случиться с каждым.

Качество: WEB-DL 720p
Формат: MKV

Видео: 4416 Kb/s, 1280x720
Аудио#1: Русский, (AC3, 2 ch, 384 Кбит/с)
скриншот  скриншот  скриншот  

Общее
Уникальный идентификатор : 244465159058308241750745947003719533885 (0xB7EA46EAB73CC0EBBD83550E0190453D)
Полное имя : D:\23.59.2O16.O.WEB-DL.72Op_KOSHARA.mkv
Формат : Matroska
Версия формата : Version 2
Размер файла : 3,00 Гбайт
Продолжительность : 1 ч. 29 м.
Режим общего битрейта : Переменный
Общий поток : 4802 Кбит/сек
Дата кодирования : UTC 2018-03-18 18:05:14
Программа кодирования : mkvmerge v8.3.0 ('Over the Horizon') 64bit
Библиотека кодирования : libebml v1.3.1 + libmatroska v1.4.2

Видео
Идентификатор : 1
Формат : AVC
Формат/Информация : Advanced Video Codec
Профиль формата : High@L4.1
Параметр CABAC формата : Да
Параметр RefFrames формата : 4 кадра
Идентификатор кодека : V_MPEG4/ISO/AVC
Продолжительность : 1 ч. 29 м.
Вид битрейта : Переменный
Битрейт : 4416 Кбит/сек
Максимальный битрейт : 5000 Кбит/сек
Ширина : 1280 пикселей
Высота : 720 пикселей
Соотношение сторон : 16:9
Режим частоты кадров : Постоянный
Частота кадров : 23,976 (24000/1001) кадра/сек
Стандарт вещания : Component
Цветовое пространство : YUV
Субдискретизация насыщенности : 4:2:0
Битовая глубина : 8 бит
Тип развёртки : Прогрессивная
Бит/(Пиксели*Кадры) : 0.196
Размер потока : 2,70 Гбайт (90%)
Default : Да
Forced : Нет
Цветовой диапазон : Limited
Основные цвета : BT.709
Характеристики трансфера : BT.709
Коэффициенты матрицы : BT.709

Аудио
Идентификатор : 2
Формат : AC-3
Формат/Информация : Audio Coding 3
Расширение режима : CM (complete main)
Параметр Endianness формата : Big
Идентификатор кодека : A_AC3
Продолжительность : 1 ч. 29 м.
Вид битрейта : Постоянный
Битрейт : 384 Кбит/сек
Каналы : 2 канала
Расположение каналов : Front: L R
Частота : 48,0 КГц
Частота кадров : 31,250 кадров/сек (1536 spf)
Метод сжатия : С потерями
Размер потока : 246 Мбайт (8%)
Default : Да
Forced : Нет

piratbit.org



Скачать 23.59 через торрент http://img12.lostpic.net/2018/03/19/9aca3a2581e62dcd981928f519e5dbd0.jpg Скачать, смотреть онлайн 23.59 бесплантно в хорошем качестве Описание: Проснувшись однажды утром после беспокойного сна, Он обнаруживает, что в день рождения Его никто не замечает. Друзья, коллеги, ... 10 10 5
Торрент: Зарегистрирован [2018-03-19 11:57] · скачан: 72 раз
Статус: T временная
Размер: 3 GB
Как cкачать? Как скачать 23.59 через торрент | UTorrent

% Раздел Тема Автор DL S | L
Программы для настройки и оптимизации ОС [ 38 MB ] CCleaner Professional 5.59.7230 Portable by SanLex [Multi/Ru/2019] DToretto777 Скачать
1 | 0
Программы для настройки и оптимизации ОС [ 14 MB ] CCleaner Free | Business | Professional | Technician Edition 5.59.7230 RePack by elchupakabra [Multi/Ru/2019] DToretto777 Скачать
1 | 0
Программы для настройки и оптимизации ОС [ 14 MB ] CCleaner 5.59.7230 Business | Professional | Technician Edition RePack by D!akov [Multi/Ru/2019] DToretto777 Скачать
1 | 0
Антивирусы [ 22 MB ] Adguard Premium 7.0.2333.5941 Nightly by elchupacabra [Multi/Ru/2019] DToretto777 Скачать
1 | 0
T Наши фильмы (мультфильмы) cо спонсором показа (Новинки AVI/MKV) [ 1.37 GB ] 23.59 [2016 WEB-DLRip] bober100 Скачать
1 | 0
Comedy Club - Комеди Клаб new [ 485 MB ] Новый Comedy Club - The best of Гарик и Тимур [2011 тв-шоу юмор SATRip] эфир от 23.12.11 shuller Скачать
1 | 0
Обои для рабочего стола [ 264 MB ] Обои для рабочего стола - Эротические обои [1050x1680-4232x5995] [238 шт.] JPG _KaisiK_ Скачать
1 | 0

28-11-2019 20:33  

Отключить всю рекламу на сайте

19-03-2018 23:59 23.59 Скачать торрент  

История одного наркомана. артхаусpiratbit.org



    Дорогой пользователь! Огромная просьба, поблагодарите релизера, оцените раздачу и оставьте свои комментарий, если Вы скачали 23.59 через торрент бесплатно!
    Комментировать посты могут только пользователи прошедшие не сложную регистрацию
    Показать сообщения:    

    23.59 через торрент
    Скачать бесплатно 23.59
    23.59 скачать торрент
    23.59 смотреть онлайн
    Cкачать фильм 23.59 бесплатно
    23.59 скачать торрент в хорошем качестве
    23.59 смотреть онлайн бесплатно в хорошем качестве


    Вы не можете начинать темы
    Вы не можете отвечать на сообщения
    Вы не можете редактировать свои сообщения
    Вы не можете удалять свои сообщения
    Вы не можете голосовать в опросах
    Вы не можете прикреплять файлы к сообщениям
    Вы можете скачивать файлы