Доктор Стрэндж

Лицензия

Добыча

Дубляж

Дом дракона

1 сезон

Тор

Дубляж

В эфире

Дубляж

Там, где раки поют

MVO

Властелин колец

1 сезон

Ultimate

pack

Рекомендуем

30

Пиратка

ВАЖНО

ВАЖНО

Ghostwire

Пиратка

jed

RePack

nioh2

RePack

RDR2

RePack

NEED FOR SPEED™ PAYBACK

RePack

скачать торрент

Кинопоиск HD

Острые козырьки 6 сезон

6 сезон

FAR CRY 6

RePack

скачать торрент

Лицензия

скачать торрент

MVO

1

1 сезон

скачать торрент

1 сезон

скачать торрент

Лицензия

  

Клоунтергейст / Clowntergeist (Аарон Миртес) [2018 г., Ужасы, Триллер, BDRip 1080p, Любительский одноголосый Xixidok]

Клоунтергейст через торрент piratbit.org

Размер: 6.93 GB | Добавлен: 4 года 8 мес. назад | Торрент скачан:73 раза
Смотреть онлайн | Скачать   

21-03-2018 04:52 Клоунтергейст Скачать торрент  

Клоунтергейст / Clowntergeist
Год выпуска: 2018
Страна: США
Жанр: Ужасы, Триллер
Продолжительность: 01:22:06
Перевод: Любительский одноголосый Xixidok
Субтитры: Русские, английские

Режиссер: Аарон Миртес

rating

В ролях: Бриттани Белланд, Джонджей Фитих, Меделин Хэйл, Берт Калвер, Аарон Миртес, Эрик Корбин, Моника Бэйкер, Джесси Мендельсон, Кэйти Ранджер, Том Сейдман, Кэйтлин Ригни, Шон Патрик Мюррэй, Элла Ромеро

Описание: Студентка Эмма больше всего в жизни боится клоунов. Она проживает в небольшом городке и даже не подозревает, что совсем скоро ей предстоит лицом к лицу столкнуться со своим страхом. Рибкаге — местный клоун, в тело которого вселяется злой дух. Теперь он начинает терроризировать свой городок, убивая ни в чем не повинных жителей. Самое страшное то, что убийца сообщает всем имя своей жертвы и дату смерти, используя для этого красный шар. Однажды Эмма находит такой шар, на котором указано ее имя. У нее остается совсем мало времени и девушка решает сделать все возможное, чтобы обезопасить себя. Избежать смерти ей помогает лучшая подруга Хизер...

Доп. информация: Рекламка от Xixidok

Качество: BDRip 1080p
Формат: MKV
Видео кодек: H.264
Аудио кодек: AC3
Видео: MPEG-4 AVC, 1920х848, ~10,7 Mbps
Аудио#1: Русский (AC3, 6 ch, 640 Kbps)
Аудио#2: Английский (DTS, 6 ch, 768 Kbps)
Семпл
скриншот   скриншот   скриншот   скриншот   скриншот  

общее
Уникальный идентификатор : 203795191441042764189008550791411609569 (0x995186B332AB4BE5A1ACC17910F72FE1)
Полное имя : e:\MMMM\Clowntergeist.2017.1080p.BluRay.x264.mkv
Формат : Matroska
Версия формата : Version 4 / Version 2
Размер файла : 6,93 Гбайт
Продолжительность : 1 ч. 20 м.
Общий поток : 12,4 Мбит/сек
Название фильма : Clowntergeist.2017
Дата кодирования : UTC 2018-03-20 13:12:54
Программа кодирования : mkvmerge v6.9.1 ('Blue Panther') 64bit built on Apr 18 2014 18:23:38
Библиотека кодирования : libebml v1.3.0 + libmatroska v1.4.1
Обложка : Yes
Attachments : cover_land.jpg / small_cover.jpg / small_cover_land.jpg / cover.jpg

Видео
Идентификатор : 1
Формат : AVC
Формат/Информация : Advanced Video Codec
Профиль формата : High@L4.1
Настройки формата : CABAC / 4 Ref Frames
Параметр CABAC формата : Да
Параметр RefFrames формата : 4 кадра
Идентификатор кодека : V_MPEG4/ISO/AVC
Продолжительность : 1 ч. 20 м.
Битрейт : 10,7 Мбит/сек
Номинальный битрейт : 11,5 Мбит/сек
Ширина : 1920 пикселей
Высота : 848 пикселей
Соотношение сторон : 2,25:1
Режим частоты кадров : Постоянный
Частота кадров : 23,976 (24000/1001) кадра/сек
Цветовое пространство : YUV
Субдискретизация насыщенности : 4:2:0
Битовая глубина : 8 бит
Тип развёртки : Прогрессивная
Бит/(Пиксели*Кадры) : 0.275
Размер потока : 6,01 Гбайт (87%)
Заголовок : Clowntergeist.2017
Библиотека кодирования : x264 core 148 r2795M aaa9aa8
Настройки программы : cabac=1 / ref=4 / deblock=1:-2:-2 / analyse=0x3:0x113 / me=umh / subme=9 / psy=1 / psy_rd=1.00:0.15 / mixed_ref=1 / me_range=16 / chroma_me=1 / trellis=2 / 8x8dct=1 / cqm=0 / deadzone=21,11 / fast_pskip=1 / chroma_qp_offset=-3 / threads=24 / lookahead_threads=3 / sliced_threads=0 / nr=0 / decimate=1 / interlaced=0 / bluray_compat=0 / constrained_intra=0 / bframes=3 / b_pyramid=2 / b_adapt=2 / b_bias=0 / direct=3 / weightb=1 / open_gop=0 / weightp=2 / keyint=250 / keyint_min=25 / scenecut=40 / intra_refresh=0 / rc_lookahead=50 / rc=abr / mbtree=1 / bitrate=11500 / ratetol=1.0 / qcomp=0.60 / qpmin=0 / qpmax=69 / qpstep=4 / vbv_maxrate=31250 / vbv_bufsize=31250 / nal_hrd=none / filler=0 / ip_ratio=1.40 / aq=1:1.00
Язык : English
Default : Да
Forced : Нет

Аудио #1
Идентификатор : 2
Формат : AC-3
Формат/Информация : Audio Coding 3
Идентификатор кодека : A_AC3
Продолжительность : 1 ч. 20 м.
Вид битрейта : Постоянный
Битрейт : 640 Кбит/сек
Каналы : 6 каналов
Расположение каналов : Front: L C R, Side: L R, LFE
Частота : 48,0 КГц
Частота кадров : 31,250 кадров/сек (1536 SPF)
Битовая глубина : 16 бит
Метод сжатия : С потерями
Размер потока : 367 Мбайт (5%)
Заголовок : xixidok
Язык : Russian
ServiceKind/String : Complete Main
Default : Да
Forced : Нет

Аудио #2
Идентификатор : 3
Формат : DTS
Формат/Информация : Digital Theater Systems
Идентификатор кодека : A_DTS
Продолжительность : 1 ч. 20 м.
Вид битрейта : Постоянный
Битрейт : 768 Кбит/сек
Каналы : 6 каналов
Расположение каналов : Front: L C R, Side: L R, LFE
Частота : 48,0 КГц
Частота кадров : 93,750 кадра/сек (512 SPF)
Битовая глубина : 16 бит
Метод сжатия : С потерями
Размер потока : 441 Мбайт (6%)
Заголовок : original
Язык : English
Default : Нет
Forced : Нет

Текст #1
Идентификатор : 4
Формат : UTF-8
Идентификатор кодека : S_TEXT/UTF8
Идентификатор кодека/Информация : UTF-8 Plain Text
Заголовок : на надписи
Язык : Russian
Default : Да
Forced : Нет

Текст #2
Идентификатор : 5
Формат : UTF-8
Идентификатор кодека : S_TEXT/UTF8
Идентификатор кодека/Информация : UTF-8 Plain Text
Язык : English
Default : Нет
Forced : Нет

Меню
00:00:00.000 : en:Chapter 1
00:05:49.432 : en:Chapter 2
00:15:43.109 : en:Chapter 3
00:23:54.266 : en:Chapter 4
00:28:39.134 : en:Chapter 5
00:34:56.428 : en:Chapter 6
00:39:18.147 : en:Chapter 7
00:44:45.766 : en:Chapter 8
00:49:53.199 : en:Chapter 9
01:00:10.899 : en:Chapter 10
01:06:43.208 : en:Chapter 11
01:14:35.888 : en:Chapter 12




Скачать Клоунтергейст через торрент http://i99.fastpic.ru/big/2018/0321/e7/5542e02cb8c9b197cfaa42dab1379de7.jpg Скачать, смотреть онлайн Клоунтергейст бесплантно в хорошем качестве Описание: Студентка Эмма больше всего в жизни боится клоунов. Она проживает в небольшом городке и даже не подозревает, что совсем скоро ей ... 8.4 10 8
Торрент: Зарегистрирован [2018-03-21 04:52] · скачан: 73 раз
Статус: T временная
Размер: 6.93 GB
Как cкачать? Как скачать Клоунтергейст через торрент | UTorrent




Последний раз редактировалось: oleg8 (2018-03-21 05:27), всего редактировалось 2 раз(а)

28-11-2019 20:33  


Отключить вcю реклaмy на сайте, в т.ч. и в плеере онлайн просмотра!

21-03-2018 13:35 Клоунтергейст Скачать торрент  

Самое страшное то, что убийца Хихидок. Сорри за спойлер.



27-03-2018 09:27 Клоунтергейст Скачать торрент  

Жду клоунторнадо.



    Дорогой пользователь! Огромная просьба, поблагодарите релизера, оцените раздачу и оставьте свои комментарий, если Вы скачали Клоунтергейст через торрент бесплатно!!
    Комментировать посты могут только пользователи прошедшие не сложную регистрацию
    Показать сообщения:    


    Клоунтергейст через торрент
    Скачать бесплатно Клоунтергейст
    Клоунтергейст скачать торрент
    Клоунтергейст смотреть онлайн
    Cкачать фильм Клоунтергейст бесплатно
    Клоунтергейст скачать торрент в хорошем качестве
    Клоунтергейст смотреть онлайн бесплатно в хорошем качестве
    Вы не можете начинать темы
    Вы не можете отвечать на сообщения
    Вы не можете редактировать свои сообщения
    Вы не можете удалять свои сообщения
    Вы не можете голосовать в опросах
    Вы не можете прикреплять файлы к сообщениям
    Вы можете скачивать файлы
    Клоунтергейст / Clowntergeist [2018 г., Ужасы, Триллер, BDRip 1080p, Любительский одноголосый Xixidok] смотреть онлайн, скачать торрент picoco.icu