Достать ножи: Стеклянная луковица

MVO

Добыча

Дубляж

Уэнсдэй

1 сезон

Тор

Дубляж

13 клиническая

1 сезон

Жестокая ночь

MVO

Одни из нас

1 сезон

Deluxe

pack

Рекомендуем

30

Пиратка

ВАЖНО

ВАЖНО

Ghostwire

Пиратка

jed

RePack

nioh2

RePack

RDR2

RePack

NEED FOR SPEED™ PAYBACK

RePack

скачать торрент

Кинопоиск HD

Острые козырьки 6 сезон

6 сезон

FAR CRY 6

RePack

скачать торрент

Лицензия

скачать торрент

MVO

1

1 сезон

скачать торрент

1 сезон

скачать торрент

Лицензия

  

Аннигиляция / Annihilation (Алекс Гарленд) [2018, Фантастика, фэнтези, ужасы, триллер, драма, детектив, приключения, UHD WEBRip 2160p] MVO [HDRezka]

Аннигиляция через торрент piratbit.org

Размер: 15.33 GB | Добавлен: 4 года 10 мес. назад | Торрент скачан:756 раз
Смотреть онлайн | Скачать | Поддержите нас   

23-03-2018 05:06 Аннигиляция Скачать торрент  

Аннигиляция / AnnihilationГод выпуска: 2018
Страна: Великобритания, США
Жанр: Фантастика, фэнтези, ужасы, триллер, драма, детектив, приключения
Продолжительность: 01:57:37
Перевод: Профессиональный (многоголосый) | HDRezka
Субтитры: Русские, английские

Режиссер: Алекс Гарленд

rating Семпл

В ролях:

Натали Портман, Дженнифер Джейсон Ли, Оскар Айзек, Тесса Томпсон, Джина Родригез, Тува Новотны, Бенедикт Вонг, Дэвид Гяси, Соноя Мидзуно, Джон Шваб

Описание:

На Землю прилетает маленький метеорит и становится причиной больших перемен. Он врезается в одиноко стоящий маяк, что загадочным образом меняет территорию вокруг.

Профессор биологии Лина уже год страдает от потери мужа-военного. Кейн отправился на очередное секретное задание, но так и не вернулся — жив ли, погиб — женщина не знает, пока однажды дезориентированный и слегка бледный супруг внезапно не появляется на пороге их спальни. Радость длится недолго — у мужчины начинаются судороги и множественные кровотечения, а по дороге в больницу машину скорой помощи тормозят военные. Лина приходит в себя на секретной базе рядом с той самой загадочной зоной, куда уже отправлялись многочисленные экспедиции, но вернулся, оказывается, только один человек — её Кейн.

Качество: UHD WEBRip 2160p
Формат: MKV

Видео: MPEG-H HEVC HDR, 18.0 Mбит/с, 3840x1606, 23.976 кадр/с
Аудио#1: Русский (AC3, 6 ch, 640 Кбит/с) / [HDRezka]
Аудио#2: Английский (AC3, 6 ch, 384 Кбит/с)
скриншот   скриншот   скриншот   скриншот   скриншот   скриншот  

General
Unique ID : 236238037199736040069667521800704970995 (0xB1B9CA7DF7E298A698586C4FE1CD50F3)
Complete name : D:uTorrentAnigiljachija.2018.WEBRip.2160p.HDR.MediaClub.mkv
Format : Matroska
Format version : Version 4 / Version 2
File size : 15.3 GiB
Duration : 1 h 55 min
Overall bit rate : 19.0 Mb/s
Encoded date : UTC 2018-03-20 21:10:07
Writing application : mkvmerge v19.0.0 ('Brave Captain') 64-bit
Writing library : libebml v1.3.5 + libmatroska v1.4.8
Cover : Yes
Attachments : cover.jpg

Video
ID : 1
Format : HEVC
Format/Info : High Efficiency Video Coding
Format profile : Main 10@L5@Main
Codec ID : V_MPEGH/ISO/HEVC
Duration : 1 h 55 min
Bit rate : 18.0 Mb/s
Width : 3 840 pixels
Height : 1 606 pixels
Display aspect ratio : 2.40:1
Frame rate mode : Constant
Frame rate : 23.976 (24000/1001) FPS
Color space : YUV
Chroma subsampling : 4:2:0
Bit depth : 10 bits
Bits/(Pixel*Frame) : 0.122
Stream size : 14.5 GiB (95%)
Title : WEBRip by Silverok
Writing library : x265 2.6+27-2f3c4158cf35:[Windows][GCC 6.3.0][64 bit] 10bit
Encoding settings : cpuid=1173503 / frame-threads=4 / numa-pools=28 / wpp / no-pmode / no-pme / no-psnr / no-ssim / log-level=2 / input-csp=1 / input-res=3840x1606 / interlace=0 / total-frames=165562 / level-idc=0 / high-tier=1 / uhd-bd=0 / ref=5 / no-allow-non-conformance / repeat-headers / annexb / no-aud / no-hrd / info / hash=0 / no-temporal-layers / open-gop / min-keyint=23 / keyint=250 / gop-lookahead=0 / bframes=8 / b-adapt=2 / b-pyramid / bframe-bias=0 / rc-lookahead=40 / lookahead-slices=0 / scenecut=40 / radl=0 / no-intra-refresh / ctu=64 / min-cu-size=8 / rect / amp / max-tu-size=32 / tu-inter-depth=3 / tu-intra-depth=3 / limit-tu=4 / rdoq-level=2 / dynamic-rd=0.00 / no-ssim-rd / signhide / no-tskip / nr-intra=0 / nr-inter=0 / no-constrained-intra / strong-intra-smoothing / max-merge=4 / limit-refs=1 / limit-modes / me=3 / subme=5 / merange=57 / temporal-mvp / weightp / weightb / no-analyze-src-pics / deblock=-3:-3 / sao / no-sao-non-deblock / rd=6 / no-early-skip / rskip / no-fast-intra / no-tskip-fast / no-cu-lossless / b-intra / no-splitrd-skip / rdpenalty=0 / psy-rd=2.00 / psy-rdoq=1.00 / no-rd-refine / no-lossless / cbqpoffs=0 / crqpoffs=0 / rc=crf / crf=16.0 / qcomp=0.80 / qpstep=4 / stats-write=0 / stats-read=0 / ipratio=1.40 / pbratio=1.30 / aq-mode=3 / aq-strength=1.00 / cutree / zone-count=0 / no-strict-cbr / qg-size=16 / no-rc-grain / qpmax=69 / qpmin=0 / no-const-vbv / sar=0 / overscan=0 / videoformat=5 / range=0 / colorprim=9 / transfer=16 / colormatrix=9 / chromaloc=0 / display-window=0 / master-display=G(34000,16000)B(13250,34500)R(7500,3000)WP(15635,16450)L(40000000,50) / max-cll=0,0 / min-luma=0 / max-luma=1023 / log2-max-poc-lsb=8 / vui-timing-info / vui-hrd-info / slices=1 / no-opt-qp-pps / no-opt-ref-list-length-pps / no-multi-pass-opt-rps / scenecut-bias=0.05 / no-opt-cu-delta-qp / no-aq-motion / hdr / hdr-opt / no-dhdr10-opt / analysis-save=(null) / analysis-load=(null) / analysis-reuse-level=5 / scale-factor=0 / refine-intra=0 / refine-inter=0 / refine-mv=0 / no-limit-sao / ctu-info=0 / no-lowpass-dct / refine-mv-type=0 / copy-pic=1
Default : Yes
Forced : No
Color range : Limited
Color primaries : BT.2020
Transfer characteristics : PQ
Matrix coefficients : BT.2020 non-constant
Mastering display color primaries : R: x=0.150000 y=0.060000, G: x=0.680000 y=0.320000, B: x=0.265000 y=0.690000, White point: x=0.312700 y=0.329000
Mastering display luminance : min: 0.0050 cd/m2, max: 4000 cd/m2

Audio #1
ID : 2
Format : AC-3
Format/Info : Audio Coding 3
Codec ID : A_AC3
Duration : 1 h 55 min
Bit rate mode : Constant
Bit rate : 640 kb/s
Channel(s) : 6 channels
Channel positions : Front: L C R, Side: L R, LFE
Sampling rate : 48.0 kHz
Frame rate : 31.250 FPS (1536 SPF)
Bit depth : 16 bits
Compression mode : Lossy
Stream size : 529 MiB (3%)
Title : Профессиональный многоголосый [HDRezka]
Language : Russian
Service kind : Complete Main
Default : Yes
Forced : No

Audio #2
ID : 3
Format : AC-3
Format/Info : Audio Coding 3
Codec ID : A_AC3
Duration : 1 h 55 min
Bit rate mode : Constant
Bit rate : 384 kb/s
Channel(s) : 6 channels
Channel positions : Front: L C R, Side: L R, LFE
Sampling rate : 48.0 kHz
Frame rate : 31.250 FPS (1536 SPF)
Bit depth : 16 bits
Compression mode : Lossy
Stream size : 317 MiB (2%)
Language : English
Service kind : Complete Main
Default : No
Forced : No

Text #1
ID : 4
Format : UTF-8
Codec ID : S_TEXT/UTF8
Codec ID/Info : UTF-8 Plain Text
Duration : 1 h 47 min
Bit rate : 55 b/s
Count of elements : 922
Stream size : 43.4 KiB (0%)
Title : Full
Language : Russian
Default : Yes
Forced : No

Text #2
ID : 5
Format : UTF-8
Codec ID : S_TEXT/UTF8
Codec ID/Info : UTF-8 Plain Text
Duration : 1 h 46 min
Bit rate : 34 b/s
Count of elements : 940
Stream size : 27.1 KiB (0%)
Title : Full
Language : English
Default : No
Forced : No

Text #3
ID : 6
Format : UTF-8
Codec ID : S_TEXT/UTF8
Codec ID/Info : UTF-8 Plain Text
Duration : 1 h 47 min
Bit rate : 40 b/s
Count of elements : 1098
Stream size : 32.2 KiB (0%)
Title : SDH
Language : English
Default : No
Forced : No




Скачать Аннигиляция через торрент https://pic1.kartinco.top/images/11/6epiu.jpg Скачать, смотреть онлайн Аннигиляция бесплантно в хорошем качестве Описание: На Землю прилетает маленький метеорит и становится причиной больших перемен. Он врезается в одиноко стоящий маяк, что загадочным ... 9.2 10 20
Info! Золотая раздача, скачанное не засчитывается.
Торрент: Зарегистрирован [2018-03-23 05:06] · скачан: 756 раз
Статус: √ проверено
Размер: 15.33 GB
Как cкачать? Как скачать Аннигиляция через торрент | UTorrent

% Раздел Тема Автор DL S | L
Ultra HD (UHD: 2K, 4K, 8K) [ 46.73 GB ] Аннигиляция / Annihilation | DUB + 2xMVO + 2xAVO | 2160p sheker187 Скачать
1 | 0
Ultra HD (UHD: 2K, 4K, 8K) [ 63.86 GB ] Аннигиляция / Annihilation | DUB + 2xMVO + 2xAVO | 2160p sheker187 Скачать
1 | 0
Фильмы 2018 [DVDrip, WEB-DLRip, HDrip] (DUB, MVO) [ 2.13 GB ] Аннигиляция / Annihilation | Лицензия | BDRip Twi7ter Скачать
1 | 0
Фильмы 2018 [DVDrip, WEB-DLRip, HDrip] (DUB, MVO) [ 1.41 GB ] Аннигиляция / Annihilation | Лицензия | BDRip Twi7ter Скачать
1 | 0
Фильмы 2018 [DVDrip, WEB-DLRip, HDrip] (DUB, MVO) [ 1.46 GB ] Аннигиляция / Annihilation | iTunes | BDRip killermax2013 Скачать
1 | 0
Фильмы (Blu-ray, BD-Remux, HDDVD) [ 39.48 GB ] Аннигиляция / Annihilation | iTunes | 1080p sheker187 Скачать
2 | 0
Фильмы (Blu-ray, BD-Remux, HDDVD) [ 43.03 GB ] Аннигиляция / Annihilation | iTunes | 1080p sheker187 Скачать
1 | 0

28-11-2019 20:33  


Отключить вcю реклaмy на сайте, в т.ч. и в плеере онлайн просмотра!

23-03-2018 16:05 Аннигиляция Скачать торрент  

ощущение недоделанного фильма после просмотра.

зы

Медведь - красавчик, единственный яркий момент. С его участием нормальный хорор мог бы быть.



24-03-2018 07:55 Аннигиляция Скачать торрент  

Фильмец да..... По началу интересен показался, но потом же....
Да и соглашусь, недоделанное чувство



24-03-2018 08:54 Аннигиляция Скачать торрент  

Да уж... Если не смотрели, даже не начинайте. Вроде начало предсказывало быть что то интересным, но потом, называется "что курил автор"



24-03-2018 15:12 Аннигиляция Скачать торрент  

фильм муторная тягомотина. очень жаль потраченного времени.



01-04-2018 16:56 Аннигиляция Скачать торрент  

Что за бред, именно файл этого фильма воспроизводится как звуковая дорожка в проигрователях!!! Другие фильмы так же в mkv формате воспроизводятся как надо.... чет я с таким ещё не сталкивался, качаеш видео а идет аудио одно................................................



    Дорогой пользователь! Огромная просьба, поблагодарите релизера, оцените раздачу и оставьте свои комментарий, если Вы скачали Аннигиляция через торрент бесплатно!!
    Комментировать посты могут только пользователи прошедшие не сложную регистрацию
    Показать сообщения:    


    Аннигиляция через торрент
    Скачать бесплатно Аннигиляция
    Аннигиляция скачать торрент
    Аннигиляция смотреть онлайн
    Cкачать фильм Аннигиляция бесплатно
    Аннигиляция скачать торрент в хорошем качестве
    Аннигиляция смотреть онлайн бесплатно в хорошем качестве
    Вы не можете начинать темы
    Вы не можете отвечать на сообщения
    Вы не можете редактировать свои сообщения
    Вы не можете удалять свои сообщения
    Вы не можете голосовать в опросах
    Вы не можете прикреплять файлы к сообщениям
    Вы можете скачивать файлы
    Аннигиляция / Annihilation [2018, Фантастика, фэнтези, ужасы, триллер, драма, детектив, приключения, UHD WEBRip 2160p] MVO [HDRezka] смотреть онлайн, скачать торрент picoco.icu