Доктор Стрэндж

Лицензия

Добыча

MVO

Дом дракона

1 сезон

Тор

Лицензия

Мэверик

Лицензия

Там, где раки поют

MVO

Властелин колец

1 сезон

Ultimate

pack

Рекомендуем

30

Repack

ВАЖНО

ВАЖНО

Ghostwire

RePack

jed

RePack

nioh2

RePack

RDR2

RePack

NEED FOR SPEED™ PAYBACK

RePack

скачать торрент

Кинопоиск HD

Острые козырьки 6 сезон

6 сезон

FAR CRY 6

RePack

скачать торрент

Лицензия

скачать торрент

MVO

1

1 сезон

скачать торрент

1 сезон

скачать торрент

Лицензия

  

Первое свидание (Искра Бабич) [1960, СССР, драма, мелодрама, SATRip от AVP Studio]

Первое свидание через торрент piratbit.org

Размер: 1.09 GB | Добавлен: 4 года 6 мес. назад | Торрент скачан:33 раза
Смотреть онлайн | Скачать   

23-03-2018 08:00 Первое свидание Скачать торрент  

Первое свидание
Страна: СССР
Производство: Мосфильм

Жанр: драма, мелодрама
Год выпуска: 1960
Продолжительность: 01:26:10

Перевод: Не требуется
Cубтитры: нет
Оригинальная аудиодорожка: русский

Режиссер: Искра Бабич

В ролях:
Лидия Шапоренко, Георгий Юматов, Валентин Грачёв, Афанасий Кочетков, Ольга Маркина, Андрей Ладынин, Татьяна Пельтцер, Нина Меньшикова, Елена Вольская, Нина Шорина, Нина Крачковская, Паша Борискин, Виталий Бондарев...
Об актёрах подробней

Описание:
Алексей и Валентина встретились в туристическом лагере на Селигере, а спустя две недели отпраздновали свадьбу. Вернувшись домой, юная пара столкнулась с первыми трудностями — появились проблемы с жильем. И молодые вскоре сошлись на том, что свадьба была преждевременной. Постоянные ссоры прекратились, когда случилось несчастье с Валиной подругой и молодая жена взяла на себя заботу о чужих детях...

Исходник: DVB
Качество видео: SATRip
Формат видео: AVI

Видео: 688х512 (4:3), 25 fps, XviD ~ 1608 kbps avg, 0.183 bit/pixel
Аудио: 48 kHz, Dolby Digital AC3 2.0, 192 kbps

Раздача от:
Общее
Полное имя : Pervoe.svidanie.1960.SATRip_[New-team]_by_AVP_Studio.avi
Формат : AVI
Формат/Информация : Audio Video Interleave
Размер файла : 1,09 Гбайт
Продолжительность : 1 ч. 26 м.
Общий поток : 1809 Кбит/сек
Программа кодирования : VirtualDubMod 1.5.10.3 | www.virtualdub-fr.org || (build 2550/release)
Библиотека кодирования : VirtualDubMod build 2550/release

Видео
Идентификатор : 0
Формат : MPEG-4 Visual
Профиль формата : Advanced Simple@L5
Настройки формата : BVOP1 / Custom Matrix
Параметр BVOP формата : 1
Параметр QPel формата : Нет
Параметр GMC формата : Без точки перехода
Параметр матрицы формата : Выборочная
Идентификатор кодека : XVID
Идентификатор кодека/Подсказка : XviD
Продолжительность : 1 ч. 26 м.
Битрейт : 1608 Кбит/сек
Ширина : 688 пикселей
Высота : 512 пикселей
Соотношение сторон : 4:3
Частота кадров : 25,000 кадров/сек
Цветовое пространство : YUV
Субдискретизация насыщенности : 4:2:0
Битовая глубина : 8 бит
Тип развёртки : Прогрессивная
Метод сжатия : С потерями
Бит/(Пиксели*Кадры) : 0.183
Размер потока : 991 Мбайт (89%)
Библиотека кодирования : XviD 73

Аудио
Идентификатор : 1
Формат : AC-3
Формат/Информация : Audio Coding 3
Идентификатор кодека : 2000
Продолжительность : 1 ч. 26 м.
Вид битрейта : Постоянный
Битрейт : 192 Кбит/сек
Каналы : 2 канала
Расположение каналов : Front: L R
Частота : 48,0 КГц
Частота кадров : 31,250 кадров/сек (1536 SPF)
Битовая глубина : 16 бит
Метод сжатия : С потерями
Размер потока : 118 Мбайт (11%)
Выравнивание : Разделение по промежуткам
Продолжительность промежутка : 40 мс. (1,00 видеокадр)
Время предзагрузки промежутка : 500 мс



Скачать Первое свидание через торрент http://picplus.ru/img/1803/22/1f9face0.png Скачать, смотреть онлайн Первое свидание бесплантно в хорошем качестве Описание:Алексей и Валентина встретились в туристическом лагере на Селигере, а спустя две недели отпраздновали свадьбу. Вернувшись домой, ... 5 10 1
Info! Золотая раздача, скачанное не засчитывается.
Торрент: Зарегистрирован [2018-03-23 08:00] · скачан: 33 раз
Статус: √ проверено
Размер: 1.09 GB
Как cкачать? Как скачать Первое свидание через торрент | UTorrent

% Раздел Тема Автор DL S | L
Кино СССР [ 1.09 GB ] Первое свидание | | SATRip-AVC от AVP Studio AVP Studio Скачать
1 | 0

28-11-2019 20:33  


Отключить вcю реклaмy на сайте, в т.ч. и в плеере онлайн просмотра!

    Дорогой пользователь! Огромная просьба, поблагодарите релизера, оцените раздачу и оставьте свои комментарий, если Вы скачали Первое свидание через торрент бесплатно!!
    Комментировать посты могут только пользователи прошедшие не сложную регистрацию
    Показать сообщения:    


    Первое свидание через торрент
    Скачать бесплатно Первое свидание
    Первое свидание скачать торрент
    Первое свидание смотреть онлайн
    Cкачать фильм Первое свидание бесплатно
    Первое свидание скачать торрент в хорошем качестве
    Первое свидание смотреть онлайн бесплатно в хорошем качестве
    Вы не можете начинать темы
    Вы не можете отвечать на сообщения
    Вы не можете редактировать свои сообщения
    Вы не можете удалять свои сообщения
    Вы не можете голосовать в опросах
    Вы не можете прикреплять файлы к сообщениям
    Вы можете скачивать файлы