2 сезон

iTunes

WEBRip

1

2 сезон

iTunes

1 сезон

1 сезон

RePack

30

Новинка

ВАЖНО

ИГРА 18+

pack

RePack

MK11
pack

Легкие деньги

RePack

jed

RePack

fifa19

RePack

RDR2

RePack

NEED FOR SPEED™ PAYBACK

4 сезон

9 сезон

Бесстыжие 9 сезон

Все сериалы

все сериалы на PB.wtf

RePack

FAR CRY 5

Anonymous, добрый день, мы не успеваем собрать деньги на оплату серверов за февраль, помогите нам пожалуйста в это трудное время. В качестве благодарности мы отключим Вам всю рекламу на сайте (укажите свой ник в строку Ваше имя)!

×
  
Magnet ссылка

Большая игра / Molly's Game (Аарон Соркин) [2017, драма, криминал, биография, WEB-DLRip-AVC] [Ukr Dub] [Лицензия / iTunes] piratbit.org

Большая игра через торрент piratbit.org

Размер: 1.82 GB | Добавлен: 2 года 11 мес. назад | Торрент скачан:48 раз
Скачать  

28-03-2018 07:31 Большая игра Скачать торрент  

Большая игра / Гра Моллі / Molly's Game
«Deal with her»

Информация о фильме
Год выпуска: 2017
Произведено: Китай, США, Канада
Категория: драма, криминал, биография
Продолжительность: 02:20:16
Перевод: Украинский (дублированный) [Лицензия / iTunes]
Субтитры: Нет

Режиссер постановщик: Аарон Соркин

В главных ролях: Джессика Честейн, Идрис Эльба, Кевин Костнер, Майкл Сера, Джереми Стронг, Крис О Дауд, Дж.С. МакКензи, Брайан Д Арси Джеймс, Билл Кэмп, Грэм Грин

О фильме: Молли Блум называли Принцессой покера. Она построила самое дорогое подпольное казино в Голливуде. Каждую минуту здесь шли ва-банк кинозвезды, шейхи, миллиардеры. Большие деньги пахнут кровью. Как выжить, когда за тобой охотится мафия и ФБР?

rating

Качество: WEB-DLRip-AVC
Формат: MKV
Видео кодек: MPEG-4 AVC
Аудио кодек: AC3
Видео: 1024x428 (2.40:1), 24,000 fps, x264 ~1 470 kbps avg, 0.140 bit/pixel
Аудио #1: 48 kHz, AC3 Dolby Digital, 2 (L,R) ch, ~192.00 kbps avg | Ukr DUB
Аудио #2: 48 kHz, AC3 Dolby Digital, 2 (L,R) ch, ~192.00 kbps avg | ENG

скриншот  скриншот  скриншот  
General
Unique ID : 152954486732773426818954539132831990890 (0x7311F66DC93D77C28DF100C20971046A)
Complete name : F:\Mollys Game (2017) WEB-DLRip-AVC [UKR_ENG] [Hurtom].mkv
Format : Matroska
Format version : Version 4 / Version 2
File size : 1.82 GiB
Duration : 2 h 20 min
Overall bit rate : 1 857 kb/s
Encoded date : UTC 2018-03-27 17:01:29
Writing application : mkvmerge v21.0.0 ('Tardigrades Will Inherit The Earth') 64-bit
Writing library : libebml v1.3.5 + libmatroska v1.4.8
Cover : Yes
Attachments : cover.jpg

Video
ID : 1
Format : AVC
Format/Info : Advanced Video Codec
Format profile : High@L4.1
Format settings : CABAC / 10 Ref Frames
Format settings, CABAC : Yes
Format settings, RefFrames : 10 frames
Codec ID : V_MPEG4/ISO/AVC
Duration : 2 h 20 min
Bit rate : 1 470 kb/s
Width : 1 024 pixels
Height : 428 pixels
Display aspect ratio : 2.40:1
Frame rate mode : Constant
Frame rate : 24.000 FPS
Color space : YUV
Chroma subsampling : 4:2:0
Bit depth : 8 bits
Scan type : Progressive
Bits/(Pixel*Frame) : 0.140
Stream size : 1.41 GiB (77%)
Writing library : x264 core 146 r2538 121396c
Encoding settings : cabac=1 / ref=10 / deblock=1:-3:-3 / analyse=0x3:0x133 / me=umh / subme=11 / psy=1 / psy_rd=1.00:0.05 / mixed_ref=1 / me_range=48 / chroma_me=1 / trellis=2 / 8x8dct=1 / cqm=0 / deadzone=21,11 / fast_pskip=1 / chroma_qp_offset=-3 / threads=6 / lookahead_threads=1 / sliced_threads=0 / nr=0 / decimate=1 / interlaced=0 / bluray_compat=0 / constrained_intra=0 / bframes=10 / b_pyramid=2 / b_adapt=2 / b_bias=0 / direct=3 / weightb=1 / open_gop=0 / weightp=2 / keyint=240 / keyint_min=24 / scenecut=40 / intra_refresh=0 / rc_lookahead=40 / rc=2pass / mbtree=0 / bitrate=1470 / ratetol=1.0 / qcomp=0.60 / qpmin=0 / qpmax=69 / qpstep=4 / cplxblur=20.0 / qblur=0.5 / vbv_maxrate=50000 / vbv_bufsize=62500 / nal_hrd=none / filler=0 / ip_ratio=1.40 / pb_ratio=1.30 / aq=1:1.00
Language : English
Default : Yes
Forced : No

Audio #1
ID : 2
Format : AC-3
Format/Info : Audio Coding 3
Format settings, Endianness : Big
Codec ID : A_AC3
Duration : 2 h 20 min
Bit rate mode : Constant
Bit rate : 192 kb/s
Channel(s) : 2 channels
Channel positions : Front: L R
Sampling rate : 48.0 kHz
Frame rate : 31.250 FPS (1536 SPF)
Bit depth : 16 bits
Compression mode : Lossy
Stream size : 193 MiB (10%)
Title : AC3 2.0 @ 192 kbps - DUB, Megogo
Language : Ukrainian
Service kind : Complete Main
Default : Yes
Forced : Yes

Audio #2
ID : 3
Format : AC-3
Format/Info : Audio Coding 3
Format settings, Endianness : Big
Codec ID : A_AC3
Duration : 2 h 20 min
Bit rate mode : Constant
Bit rate : 192 kb/s
Channel(s) : 2 channels
Channel positions : Front: L R
Sampling rate : 48.0 kHz
Frame rate : 31.250 FPS (1536 SPF)
Bit depth : 16 bits
Compression mode : Lossy
Stream size : 193 MiB (10%)
Title : AC3 2.0 @ 192 kbps - Original
Language : English
Service kind : Complete Main
Default : No
Forced : No

Text
ID : 4
Format : UTF-8
Codec ID : S_TEXT/UTF8
Codec ID/Info : UTF-8 Plain Text
Title : Full
Language : English
Default : No
Forced : No

Menu
00:00:00.000 : en:01
00:07:41.083 : en:02
00:16:00.874 : en:03
00:23:25.874 : en:04
00:33:18.165 : en:05
00:41:36.165 : en:06
00:49:57.998 : en:07
00:59:16.498 : en:08
01:06:53.998 : en:09
01:15:05.414 : en:10
01:22:30.205 : en:11
01:31:05.871 : en:12
01:41:03.871 : en:13
01:51:07.746 : en:14
02:00:55.162 : en:15
02:08:32.162 : en:16
piratbit.org



Скачать Большая игра через торрент https://i99.fastpic.ru/big/2018/0328/64/17ce50064402bf9de16a8d39b6415f64.jpg Скачать фильм Большая игра через торрент бесплантно в хорошем качестве О фильме: Молли Блум называли Принцессой покера. Она построила самое дорогое подпольное казино в Голливуде. Каждую минуту здесь шли ва-банк ... 10 10 4
Торрент: Зарегистрирован [2018-03-28 07:31] · скачан: 48 раз
Статус: √ проверено
Размер: 1.82 GB
Как cкачать? Как скачать Большая игра через торрент | UTorrent

28-11-2019 20:33  

Отключить всю рекламу на сайте

09-05-2018 12:37 Большая игра Скачать торрент  

Фильм бомба, давненько я таких увлекательных кинчиков не смотрелpiratbit.org



    Дорогой пользователь! Огромная просьба, поблагодарите релизера, оцените раздачу и оставьте свои комментарий, если Вы скачали Большая игра через торрент бесплатно! Внесите свою лепту в развитие PiratBit!
    Комментировать посты могут только пользователи прошедшие не сложную регистрацию
    Показать сообщения:    

    Большая игра через торрент
    Скачать бесплатно Большая игра
    Большая игра скачать торрент
    Большая игра смотреть онлайн
    Cкачать фильм Большая игра бесплатно
    Большая игра скачать торрент в хорошем качестве
    Большая игра смотреть онлайн бесплатно в хорошем качестве


    Вы не можете начинать темы
    Вы не можете отвечать на сообщения
    Вы не можете редактировать свои сообщения
    Вы не можете удалять свои сообщения
    Вы не можете голосовать в опросах
    Вы не можете прикреплять файлы к сообщениям
    Вы можете скачивать файлы