Лицензия

MVO

1

1 сезон

Лицензия

Лицензия

13

MVO

1 сезон

Deluxe Edition

pack

Рекомендуем

30

Repack

ВАЖНО

ВАЖНО

Ghostwire

RePack

jed

RePack

fifa19

RePack

RDR2

RePack

NEED FOR SPEED™ PAYBACK

RePack

Кинопоиск HD

 Острые козырьки 6 сезон

6 сезон

FAR CRY 6

RePack

Лицензия

MVO

1

1 сезон

1 сезон

Лицензия

  

Мертвые души (Леонид Трауберг) [1960, СССР, драма, комедия, DVDRip от AVP Studio]

Мертвые души через торрент piratbit.org

Размер: 745 MB | Добавлен: 4 года 5 мес. назад | Торрент скачан:17 раз
Смотреть онлайн Мертвые души | Скачать   

28-03-2018 09:14 Мертвые души Скачать торрент  

Мертвые души
Страна: СССР
Производство: Мосфильм

Жанр: драма, комедия
Год выпуска: 1960
Продолжительность: 01:37:01

Перевод: Не требуется
Cубтитры: нет
Оригинальная аудиодорожка: русский

Режиссер: Леонид Трауберг

В ролях:
Владимир Белокуров, Виктор Станицын, Борис Ливанов, Алексей Грибов, Анастасия Зуева, Борис Петкер, Юрий Леонидов...
Об актёрах подробней

Описание:
Фильм-спектакль в исполнении артистов Московского Художественного академического театра им. М. Горького по поэме Н. В. Гоголя «Мёртвые души».

Источник: DVD5 R5
Качество видео: DVDRip
Формат видео: AVI

Видео: 688х320 (2,2:1), 25 fps, XviD ~ 871 kbps avg, 0.158 bit/pixel
Аудио: 48 kHz, Dolby Digital AC3 2.0, 192 kbps

Раздача от:
Общее
Полное имя : Mertvye.dushi.1960.DVDRip_[New-team]_by_AVP_Studio.avi
Формат : AVI
Формат/Информация : Audio Video Interleave
Размер файла : 745 Мбайт
Продолжительность : 1 ч. 37 м.
Общий поток : 1073 Кбит/сек
Программа кодирования : VirtualDubMod 1.5.10.3 | www.virtualdub-fr.org || (build 2550/release)
Библиотека кодирования : VirtualDubMod build 2550/release

Видео
Идентификатор : 0
Формат : MPEG-4 Visual
Профиль формата : Advanced Simple@L5
Настройки формата : BVOP1 / Custom Matrix
Параметр BVOP формата : 1
Параметр QPel формата : Нет
Параметр GMC формата : Без точки перехода
Параметр матрицы формата : Выборочная
Идентификатор кодека : XVID
Идентификатор кодека/Подсказка : XviD
Продолжительность : 1 ч. 37 м.
Битрейт : 871 Кбит/сек
Ширина : 688 пикселей
Высота : 320 пикселей
Соотношение сторон : 2,2:1
Частота кадров : 25,000 кадров/сек
Цветовое пространство : YUV
Субдискретизация насыщенности : 4:2:0
Битовая глубина : 8 бит
Тип развёртки : Прогрессивная
Метод сжатия : С потерями
Бит/(Пиксели*Кадры) : 0.158
Размер потока : 605 Мбайт (81%)
Библиотека кодирования : XviD 73

Аудио
Идентификатор : 1
Формат : AC-3
Формат/Информация : Audio Coding 3
Идентификатор кодека : 2000
Продолжительность : 1 ч. 37 м.
Вид битрейта : Постоянный
Битрейт : 192 Кбит/сек
Каналы : 2 канала
Расположение каналов : Front: L R
Частота : 48,0 КГц
Частота кадров : 31,250 кадров/сек (1536 SPF)
Битовая глубина : 16 бит
Метод сжатия : С потерями
Размер потока : 133 Мбайт (18%)
Выравнивание : Разделение по промежуткам
Продолжительность промежутка : 40 мс. (1,00 видеокадр)
Время предзагрузки промежутка : 500 мс



Скачать Мертвые души через торрент http://picplus.ru/img/1803/28/f19ca0b6.png Скачать, смотреть онлайн Мертвые души бесплантно в хорошем качестве Описание:Фильм-спектакль в исполнении артистов Московского Художественного академического театра им. М. Горького по поэме Н. В. Гоголя ... 10 10 3
Info! Золотая раздача, скачанное не засчитывается.
Торрент: Зарегистрирован [2018-03-28 09:14] · скачан: 17 раз
Статус: √ проверено
Размер: 745 MB
Как cкачать? Как скачать Мертвые души через торрент | UTorrent

% Раздел Тема Автор DL S | L
Кино СССР [ 744 MB ] Мертвые души | | DVDRip-AVC от AVP Studio AVP Studio Скачать
1 | 0

28-11-2019 20:33  

Отключить вcю реклaмy на сайте

    Дорогой пользователь! Огромная просьба, поблагодарите релизера, оцените раздачу и оставьте свои комментарий, если Вы скачали Мертвые души через торрент бесплатно!!
    Комментировать посты могут только пользователи прошедшие не сложную регистрацию
    Показать сообщения:    


    Мертвые души через торрент
    Скачать бесплатно Мертвые души
    Мертвые души скачать торрент
    Мертвые души смотреть онлайн
    Cкачать фильм Мертвые души бесплатно
    Мертвые души скачать торрент в хорошем качестве
    Мертвые души смотреть онлайн бесплатно в хорошем качестве
    Вы не можете начинать темы
    Вы не можете отвечать на сообщения
    Вы не можете редактировать свои сообщения
    Вы не можете удалять свои сообщения
    Вы не можете голосовать в опросах
    Вы не можете прикреплять файлы к сообщениям
    Вы можете скачивать файлы