2 сезон

iTunes

WEBRip

1

2 сезон

iTunes

1 сезон

1 сезон

RePack

30

Новинка

ВАЖНО

ИГРА 18+

pack

RePack

MK11
pack

Легкие деньги

RePack

jed

RePack

fifa19

RePack

RDR2

RePack

NEED FOR SPEED™ PAYBACK

4 сезон

9 сезон

Бесстыжие 9 сезон

Все сериалы

все сериалы на PB.wtf

RePack

FAR CRY 5

Anonymous, доброй ночи, мы не успеваем собрать деньги на оплату серверов за февраль, помогите нам пожалуйста в это трудное время. В качестве благодарности мы отключим Вам всю рекламу на сайте (укажите свой ник в строку Ваше имя)!

×
  
Magnet ссылка

Все деньги мира / All the Money in the World (Ридли Скотт) [2017, триллер, драма, криминал, детектив, биография, BDRemux 1080p] [Ukr DUB] [Лицензия / iTunes] piratbit.org

Все деньги мира через торрент piratbit.org

Размер: 28.24 GB | Добавлен: 2 года 10 мес. назад | Торрент скачан:58 раз
Скачать  

30-03-2018 09:36 Все деньги мира Скачать торрент  

Все деньги мира / All the Money in the World
Год выхода : 2017
Жанр : триллер, драма, криминал, детектив, биография
Страна : США
Продолжительность : 02:12:41
Перевод : Украинский (дублированный) [Лицензия / iTunes]
Субтитры: английские

Режиссер : Ридли Скотт

В главных ролях: Мишель Уильямс, Кристофер Пламмер, Марк Уолберг, Ромен Дюрис, Тимоти Хаттон, Чарли Пламмер, Чарли Шотуэлл, Эндрю Бакан, Марко Леонарди, Джузеппе Бонифати

Описание: Во всем мире не было человека богаче, чем Пол Гетти. Принадлежать к его роду — все равно что быть богом. Однако, когда в Риме неизвестные похищают его внука, нефтяной магнат, ко всеобщему шоку, наотрез отказывается платить выкуп. И тогда единственной надеждой для матери мальчика становится таинственный сотрудник службы безопасности самого Гетти…



Файл
Качество : BDRemux 1080p
Формат видео : MKV
Видео : MPEG-4 AVC, 27.9 Mбит/с, 1920x1080
Аудио 1 : 48 kHz, AC3 Dolby Digital, 2 ch, ~192 kbps - Ukr DUB
Аудио 2 : 48 kHz, DTS-HD MA, 6 ch, ~2341 kbps - ENG
General
Unique ID : 52397411508560437542478756184879476605 (0x276B5FD7950415A9BCBC8ADB6A9B2F7D)
Format : Matroska
Format version : Version 4 / Version 2
File size : 28.2 GiB
Duration : 2 h 12 min
Overall bit rate mode : Variable
Overall bit rate : 30.5 Mb/s
Movie name : All the Money in the World
Encoded date : UTC 2018-03-30 07:00:04
Writing application : mkvmerge v9.8.0 ('Kuglblids') 64bit
Writing library : libebml v1.3.4 + libmatroska v1.4.5

Video
ID : 1
Format : AVC
Format/Info : Advanced Video Codec
Format profile : High@L4.1
Format settings, CABAC : Yes
Format settings, ReFrames : 2 frames
Format settings, GOP : M=1, N=10
Codec ID : V_MPEG4/ISO/AVC
Duration : 2 h 12 min
Bit rate mode : Variable
Bit rate : 27.9 Mb/s
Width : 1 920 pixels
Height : 1 080 pixels
Display aspect ratio : 16:9
Frame rate mode : Constant
Frame rate : 23.976 (24000/1001) FPS
Color space : YUV
Chroma subsampling : 4:2:0
Bit depth : 8 bits
Scan type : Progressive
Bits/(Pixel*Frame) : 0.562
Stream size : 25.9 GiB (92%)
Title : H.264/AVC, 1080p, 27,9 Mbps
Language : English
Default : Yes
Forced : Yes

Audio #1
ID : 2
Format : AC-3
Format/Info : Audio Coding 3
Mode extension : CM (complete main)
Format settings, Endianness : Big
Codec ID : A_AC3
Duration : 2 h 12 min
Bit rate mode : Constant
Bit rate : 192 kb/s
Channel(s) : 2 channels
Channel positions : Front: L R
Sampling rate : 48.0 kHz
Frame rate : 31.250 FPS (1536 spf)
Bit depth : 16 bits
Compression mode : Lossy
Stream size : 182 MiB (1%)
Title : Українська, iTunes, AC3, 2.0, 192 kbps
Language : Ukrainian
Default : Yes
Forced : Yes

Audio #2
ID : 3
Format : DTS
Format/Info : Digital Theater Systems
Format profile : MA / Core
Mode : 16
Format settings, Endianness : Big
Codec ID : A_DTS
Duration : 2 h 12 min
Bit rate mode : Variable / Constant
Bit rate : 2 341 kb/s / 1 509 kb/s
Channel(s) : 6 channels
Channel positions : Front: L C R, Side: L R, LFE
Sampling rate : 48.0 kHz
Frame rate : 93.750 FPS (512 spf)
Bit depth : 16 bits
Compression mode : Lossless / Lossy
Stream size : 2.17 GiB (8%)
Title : English, DTS-HD MA, 5.1, 2341 kbps
Language : English
Default : No
Forced : No

Text #1
ID : 4
Format : UTF-8
Codec ID : S_TEXT/UTF8
Codec ID/Info : UTF-8 Plain Text
Duration : 2 h 4 min
Bit rate : 49 b/s
Count of elements : 1530
Stream size : 44.6 KiB (0%)
Title : English, Full
Language : English
Default : Yes
Forced : Yes

Text #2
ID : 5
Format : UTF-8
Codec ID : S_TEXT/UTF8
Codec ID/Info : UTF-8 Plain Text
Duration : 2 h 6 min
Bit rate : 54 b/s
Count of elements : 1734
Stream size : 50.6 KiB (0%)
Title : English, SDH
Language : English
Default : No
Forced : No

Menu
00:00:00.000 : en:Chapter 1
00:10:55.113 : en:Chapter 2
00:19:10.358 : en:Chapter 3
00:30:35.500 : en:Chapter 4
00:39:27.907 : en:Chapter 5
00:48:36.664 : en:Chapter 6
00:55:26.156 : en:Chapter 7
01:05:59.164 : en:Chapter 8
01:15:27.606 : en:Chapter 9
01:24:42.369 : en:Chapter 10
01:28:20.587 : en:Chapter 11
01:34:55.064 : en:Chapter 12
01:42:14.170 : en:Chapter 13
01:48:11.485 : en:Chapter 14
01:56:07.169 : en:Chapter 15
02:03:08.381 : en:Chapter 16
piratbit.org



Скачать Все деньги мира через торрент http://i100.fastpic.ru/big/2018/0330/5e/deda5545e6344036f96c7c68b490fe5e.jpg Скачать фильм Все деньги мира через торрент бесплантно в хорошем качестве Описание: Во всем мире не было человека богаче, чем Пол Гетти. Принадлежать к его роду — все равно что быть богом. Однако, когда в Риме ... 10 10 1
Торрент: Зарегистрирован [2018-03-30 09:36] · скачан: 58 раз
Статус: √ проверено
Размер: 28.24 GB
Как cкачать? Как скачать Все деньги мира через торрент | UTorrent

% Раздел Тема Автор DL S | L
Фильмы 2017 [DVDrip, WEB-DLRip, HDrip] (DUB, MVO) [ 1.46 GB ] Все деньги мира / All the Money in the World [2017 биография BDRip] MVO - ExKinoRay Enigma2010 Скачать
4 | 1
Фильмы (Blu-ray, BD-Remux, HDDVD) [ 28.42 GB ] Все деньги мира / All the Money in the World [2017 биография BD Remux 1080p] bober100 Скачать
1 | 0
Фильмы 2017 [DVDrip, WEB-DLRip, HDrip] (DUB, MVO) [ 2.12 GB ] Все деньги мира / All the Money in the World [2017 биография BDRip] - Twi7ter Скачать
2 | 0

28-11-2019 20:33  

Отключить всю рекламу на сайте

    Дорогой пользователь! Огромная просьба, поблагодарите релизера, оцените раздачу и оставьте свои комментарий, если Вы скачали Все деньги мира через торрент бесплатно! Внесите свою лепту в развитие PiratBit!
    Комментировать посты могут только пользователи прошедшие не сложную регистрацию
    Показать сообщения:    

    Все деньги мира через торрент
    Скачать бесплатно Все деньги мира
    Все деньги мира скачать торрент
    Все деньги мира смотреть онлайн
    Cкачать фильм Все деньги мира бесплатно
    Все деньги мира скачать торрент в хорошем качестве
    Все деньги мира смотреть онлайн бесплатно в хорошем качестве


    Вы не можете начинать темы
    Вы не можете отвечать на сообщения
    Вы не можете редактировать свои сообщения
    Вы не можете удалять свои сообщения
    Вы не можете голосовать в опросах
    Вы не можете прикреплять файлы к сообщениям
    Вы можете скачивать файлы