Достать ножи: Стеклянная луковица

MVO

Добыча

Дубляж

Уэнсдэй

1 сезон

Тор

Дубляж

13 клиническая

1 сезон

Жестокая ночь

MVO

Одни из нас

1 сезон

Deluxe

pack

Рекомендуем

30

Пиратка

ВАЖНО

ВАЖНО

Ghostwire

Пиратка

jed

RePack

nioh2

RePack

RDR2

RePack

NEED FOR SPEED™ PAYBACK

RePack

скачать торрент

Кинопоиск HD

Острые козырьки 6 сезон

6 сезон

FAR CRY 6

RePack

скачать торрент

Лицензия

скачать торрент

MVO

1

1 сезон

скачать торрент

1 сезон

скачать торрент

Лицензия

  

Гордость и предубеждение и зомби / Pride and Prejudice and Zombies (Бёрр Стирс) [2015, ужасы, боевик, мелодрама, UHD BDRemux 2160p] Дубляж - [Лицензия]

Гордость и предубеждение и зомби через торрент piratbit.org

Размер: 54.1 GB | Добавлен: 4 года 10 мес. назад | Торрент скачан:18 раз
Смотреть онлайн | Скачать | Поддержите нас   

31-03-2018 15:14 Гордость и предубеждение и зомби Скачать торрент  

Гордость и предубеждение и зомби / Pride and Prejudice and Zombies

Год выпуска: 2015
Страна: США, Великобритания
Жанр: ужасы, боевик, мелодрама
Продолжительность: 01:47:19
Перевод: Дублированный [Лицензия]
Субтитры: Русские(Full), английские, немецкие
Режиссер: Бёрр Стирс
В ролях:

Лили Джеймс (Elizabeth Bennet), Сэм Райли (Mr. Darcy), Белла Хиткот (Jane Bennet), Элли Бамбер (Lydia Bennet), Милли Брэйди (Mary Bennet), Сьюки Уотерхаус (Kitty Bennet), Дуглас Бут (Mr. Bingley), Сэлли Филлипс (Mrs. Bennet), Чарльз Дэнс (Mr. Bennet), Джек Хьюстон (George Wickham), Лина Хиди (Lady Catherine de Bourgh), Мэтт Смит (Parson Collins)
Описание:
Англия, XIX век. Элизабет Беннет и её сестры вынуждены противостоять заполонившим Англию ходячим мертвецам, а также девушки сталкиваются с давлением необходимости найти себе мужей.
Рейтинг:

MPAA: PG-13 - Детям до 13 лет просмотр не желателен
Качество: UHD BDRemux 2160p
Формат: MKV
Видео: HEVC, 61.2 Мбит/с, 3840x2160, 23.976 Кадр/с
Аудио: Russian 48 kHz, DTS-HD MА, 6 ch, 1570 Кбит/с Дубляж
Аудио: German 48 kHz, DTS-HD MА, 6 ch, 1509 Кбит/с Кбит/с Дубляж
Аудио: English 48 kHz, TrueHD+Atmos, 8 ch, 8193 Кбит/с Original
Аудио: English 48 kHz, (AC3, 6 ch, 640 Кбит/с) Original
Навигация по главам: есть
\Stolz.und.Vorurteil.und.Zombies.2016.GER.DTSHD.DL.2160p.UHD.BluRay.HDR.HEVC.Remux-SpaceHD13.mkv
Format : Matroska
Format version : Version 4 / Version 2
File size : 54.1 GiB
Duration : 1 h 47 min
Overall bit rate mode : Variable
Overall bit rate : 71.8 Mb/s
Movie name : Stolz.und.Vorurteil.und.Zombies.2016.GER.DTSHD.DL.2160p.UHD.BluRay.HDR.HEVC.Remux-SpaceHD13
Encoded date : UTC 2018-03-30 19:31:52
Writing application : mkvmerge v20.0.0 ('I Am The Sun') 64-bit
Writing library : libebml v1.3.5 + libmatroska v1.4.8
Cover : Yes
Attachments : cover.jpg

Video
ID : 1
Format : HEVC
Format/Info : High Efficiency Video Coding
Commercial name : HDR10
Format profile : Main 10@L5.1@High
Codec ID : V_MPEGH/ISO/HEVC
Duration : 1 h 47 min
Bit rate : 61.2 Mb/s
Width : 3 840 pixels
Height : 2 160 pixels
Display aspect ratio : 16:9
Frame rate mode : Constant
Frame rate : 23.976 (24000/1001) FPS
Color space : YUV
Chroma subsampling : 4:2:0 (Type 2)
Bit depth : 10 bits
Bits/(Pixel*Frame) : 0.308
Stream size : 46.0 GiB (85%)
Title : Stolz.und.Vorurteil.und.Zombies.2016.GER.DTSHD.DL.2160p.UHD.BluRay.HDR.HEVC.Remux-SpaceHD13
Language : Russian
Default : Yes
Forced : No
Color range : Limited
Color primaries : BT.2020
Transfer characteristics : PQ
Matrix coefficients : BT.2020 non-constant
Mastering display color pri : BT.709
Mastering display luminance : min: 0.0050 cd/m2, max: 4000 cd/m2
Maximum Content Light Level : 1035 cd/m2
Maximum Frame-Average Light : 726 cd/m2

Audio #1
ID : 2
Format : DTS
Format/Info : Digital Theater Systems
Format profile : MA / Core
Codec ID : A_DTS
Duration : 1 h 47 min
Bit rate mode : Variable / Constant
Bit rate : 1 570 kb/s / 768 kb/s
Channel(s) : 6 channels
Channel positions : Front: L C R, Side: L R, LFE
Sampling rate : 48.0 kHz
Frame rate : 93.750 FPS (512 SPF)
Bit depth : 16 bits
Compression mode : Lossless / Lossy
Stream size : 1.18 GiB (2%)
Title : Stolz.und.Vorurteil.und.Zombies.2016.GER.DTSHD.DL.2160p.UHD.BluRay.HDR.HEVC.Remux-SpaceHD13.Дубляж
Language : Russian
Default : Yes
Forced : No

Audio #2
ID : 3
Format : DTS
Format/Info : Digital Theater Systems
Format profile : MA / Core
Codec ID : A_DTS
Duration : 1 h 47 min
Bit rate mode : Variable / Constant
Bit rate : 3 840 kb/s / 1 509 kb/s
Channel(s) : 6 channels
Channel positions : Front: L C R, Side: L R, LFE
Sampling rate : 48.0 kHz
Frame rate : 93.750 FPS (512 SPF)
Bit depth : 24 bits
Compression mode : Lossless / Lossy
Stream size : 2.87 GiB (5%)
Title : Stolz.und.Vorurteil.und.Zombies.2016.GER.DTSHD.DL.2160p.UHD.BluRay.HDR.HEVC.Remux-SpaceHD13.Дубляж
Language : German
Default : No
Forced : No

Audio #3
ID : 4
Format : TrueHD
Format profile : TrueHD+Atmos / TrueHD
Codec ID : A_TRUEHD
Duration : 1 h 47 min
Bit rate mode : Variable
Bit rate : 4 625 kb/s
Maximum bit rate : 8 193 kb/s
Channel(s) : Object Based / 8 channels
Channel positions : Object Based / Front: L C R, Side: L R, Back: L R, LFE
Sampling rate : / 48.0 kHz
Frame rate : 1 200.000 FPS (40 SPF)
Compression mode : Lossless
Stream size : 3.47 GiB (6%)
Title : Stolz.und.Vorurteil.und.Zombies.2016.GER.DTSHD.DL.2160p.UHD.BluRay.HDR.HEVC.Remux-SpaceHD13
Language : English
Default : No
Forced : No

Audio #4
ID : 5
Format : AC-3
Format/Info : Audio Coding 3
Codec ID : A_AC3
Duration : 1 h 47 min
Bit rate mode : Constant
Bit rate : 640 kb/s
Channel(s) : 6 channels
Channel positions : Front: L C R, Side: L R, LFE
Sampling rate : 48.0 kHz
Frame rate : 31.250 FPS (1536 SPF)
Bit depth : 16 bits
Compression mode : Lossy
Stream size : 492 MiB (1%)
Title : Stolz.und.Vorurteil.und.Zombies.2016.GER.DTSHD.DL.2160p.UHD.BluRay.HDR.HEVC.Remux-SpaceHD13
Language : English
Service kind : Complete Main
Default : No
Forced : No

Text #1
ID : 6
Format : UTF-8
Codec ID : S_TEXT/UTF8
Codec ID/Info : UTF-8 Plain Text
Duration : 1 h 46 min
Bit rate : 100 b/s
Count of elements : 1284
Stream size : 78.7 KiB (0%)
Title : Russian-SRT
Language : Russian
Default : Yes
Forced : No

Text #2
ID : 7
Format : UTF-8
Codec ID : S_TEXT/UTF8
Codec ID/Info : UTF-8 Plain Text
Duration : 1 h 46 min
Bit rate : 100 b/s
Count of elements : 1284
Stream size : 78.7 KiB (0%)
Title : Russian-SRT
Language : Russian
Default : No
Forced : No

Text #3
ID : 8
Format : PGS
Muxing mode : zlib
Codec ID : S_HDMV/PGS
Codec ID/Info : Picture based subtitle format used on BDs/HD-DVDs
Duration : 1 h 46 min
Bit rate : 67.9 kb/s
Count of elements : 2722
Stream size : 51.9 MiB (0%)
Title : Deutsch
Language : German
Default : No
Forced : No

Text #4
ID : 9
Format : UTF-8
Codec ID : S_TEXT/UTF8
Codec ID/Info : UTF-8 Plain Text
Duration : 1 min 57 s
Bit rate : 8 b/s
Count of elements : 4
Stream size : 121 Bytes (0%)
Title : Deutsch Forced
Language : German
Default : No
Forced : Yes

Text #5
ID : 10
Format : PGS
Muxing mode : zlib
Codec ID : S_HDMV/PGS
Codec ID/Info : Picture based subtitle format used on BDs/HD-DVDs
Duration : 1 h 46 min
Bit rate : 42.2 kb/s
Count of elements : 2974
Stream size : 32.2 MiB (0%)
Title : English SDH
Language : English
Default : No
Forced : No

Text #6
ID : 11
Format : PGS
Muxing mode : zlib
Codec ID : S_HDMV/PGS
Codec ID/Info : Picture based subtitle format used on BDs/HD-DVDs
Duration : 1 h 46 min
Bit rate : 37.2 kb/s
Count of elements : 2588
Stream size : 28.4 MiB (0%)
Title : English
Language : English
Default : No
Forced : No

Text #7
ID : 12
Format : UTF-8
Codec ID : S_TEXT/UTF8
Codec ID/Info : UTF-8 Plain Text
Duration : 1 min 57 s
Bit rate : 7 b/s
Count of elements : 2
Stream size : 106 Bytes (0%)
Title : English Forced
Language : English
Default : No
Forced : Yes

Menu
00:00:00.000 : en:Chapter 01
00:06:41.192 : en:Chapter 02
00:11:50.209 : en:Chapter 03
00:17:59.995 : en:Chapter 04
00:24:06.194 : en:Chapter 05
00:31:53.036 : en:Chapter 06
00:37:43.219 : en:Chapter 07
00:44:22.242 : en:Chapter 08
00:52:06.623 : en:Chapter 09
00:59:28.606 : en:Chapter 10
01:05:44.941 : en:Chapter 11
01:11:16.981 : en:Chapter 12
01:18:40.674 : en:Chapter 13
01:25:03.348 : en:Chapter 14
01:30:18.162 : en:Chapter 15
01:35:49.702 : en:Chapter 16



Скачать Гордость и предубеждение и зомби через торрент http://i103.fastpic.ru/big/2018/0331/eb/05f4401848b1a997ecc75a065fe566eb.png Скачать, смотреть онлайн Гордость и предубеждение и зомби бесплантно в хорошем качестве Описание: Англия, XIX век. Элизабет Беннет и её сестры вынуждены противостоять заполонившим Англию ходячим мертвецам, а также девушки ... 10 10 2
Торрент: Зарегистрирован [2018-03-31 15:14] · скачан: 18 раз
Статус: √ проверено
Размер: 54.1 GB
Как cкачать? Как скачать Гордость и предубеждение и зомби через торрент | UTorrent

% Раздел Тема Автор DL S | L
Фильмы [HD 720p, 1080p] (Хороший звук DUB, MVO) [ 7.66 GB ] Гордость и предубеждение и зомби / Pride and Prejudice and Zombies | Лицензия | 1080p от NNNB _denis_100 Скачать
1 | 0
Фильмы 2016 [DVDrip, WEB-DLRip, HDrip] (DUB, MVO) [ 2.18 GB ] Гордость и предубеждение и зомби / Pride and Prejudice and Zombies | Лицензия | BDRip-AVC от sokol_ok sokol_ok Скачать
2 | 0
Фильмы 2016 [DVDrip, WEB-DLRip, HDrip] (DUB, MVO) [ 2.19 GB ] Гордость и предубеждение и зомби / Pride and Prejudice and Zombies | Лицензия | BDRip Twi7ter Скачать
1 | 0
Фильмы 2016 [DVDrip, WEB-DLRip, HDrip] (DUB, MVO) [ 1.46 GB ] Гордость и предубеждение и зомби / Pride and Prejudice and Zombies | Лицензия | BDRip Twi7ter Скачать
1 | 0
Фильмы 2016 [DVDrip, WEB-DLRip, HDrip] (DUB, MVO) [ 1.46 GB ] Гордость и предубеждение и зомби / Pride and Prejudice and Zombies | Лицензия | BDRip-AVC от sokol_ok sokol_ok Скачать
2 | 0
Фильмы 2016 [DVDrip, WEB-DLRip, HDrip] (DUB, MVO) [ 2.05 GB ] Гордость и предубеждение и зомби / Pride and Prejudice and Zombies | Лицензия | HDRip killermax2013 Скачать
1 | 0
R.G. Resident & PiratVoice - Фильмы, Видео [ 2.03 GB ] Гордость и предубеждение и зомби / Pride and Prejudice and Zombies | Лицензия R.G.Resident | BDRip-AVC Хорват Скачать
1 | 0

28-11-2019 20:33  


Отключить вcю реклaмy на сайте, в т.ч. и в плеере онлайн просмотра!

    Дорогой пользователь! Огромная просьба, поблагодарите релизера, оцените раздачу и оставьте свои комментарий, если Вы скачали Гордость и предубеждение и зомби через торрент бесплатно!!
    Комментировать посты могут только пользователи прошедшие не сложную регистрацию
    Показать сообщения:    


    Гордость и предубеждение и зомби через торрент
    Скачать бесплатно Гордость и предубеждение и зомби
    Гордость и предубеждение и зомби скачать торрент
    Гордость и предубеждение и зомби смотреть онлайн
    Cкачать фильм Гордость и предубеждение и зомби бесплатно
    Гордость и предубеждение и зомби скачать торрент в хорошем качестве
    Гордость и предубеждение и зомби смотреть онлайн бесплатно в хорошем качестве
    Вы не можете начинать темы
    Вы не можете отвечать на сообщения
    Вы не можете редактировать свои сообщения
    Вы не можете удалять свои сообщения
    Вы не можете голосовать в опросах
    Вы не можете прикреплять файлы к сообщениям
    Вы можете скачивать файлы
    Гордость и предубеждение и зомби / Pride and Prejudice and Zombies [2015, ужасы, боевик, мелодрама, UHD BDRemux 2160p] Дубляж - [Лицензия] смотреть онлайн, скачать торрент picoco.icu