1 сезон

3 сезон

iTunes

1

iTunes

DUB Netflix

iTunes

13

1 сезон

RePack

30

Deluxe

pack

Легкие деньги

ВАЖНО

ИГРА 18+

pack

RePack

MK11

RePack

jed

RePack

fifa19

RePack

RDR2

RePack

NEED FOR SPEED™ PAYBACK

4 сезон

9 сезон

Бесстыжие 9 сезон

Все сериалы

все сериалы на PB.wtf

RePack

FAR CRY 5

Anonymous, доброй ночи, мы не успеваем до 1 числа собрать деньги на оплату серверов, помогите нам пожалуйста в это трудное время. В качестве благодарности мы отключим Вам всю рекламу на сайте (укажите свой ник в строку Ваше имя)!

×
  
Magnet ссылка

Универ. Новая общага / Сезон: 14 / Серии: 1-18 из 18 (Константин Смирнов) [2018, Ситком, комедия, WEB-DLRip] piratbit.org

Универ. Новая общага через торрент piratbit.org

Размер: 5.58 GB | Добавлен: 3 года 2 мес. назад | Торрент скачан:219 раз
Скачать  

02-04-2018 18:30 Универ. Новая общага Скачать торрент  

Универ. Новая общага
Год выпуска: 2018
Страна: Россия
Жанр: Ситком, комедия
Продолжительность: ~ 00:25:00
Субтитры: отсутствуют

Режиссер: Константин Смирнов



В ролях:

Арарат Кещян, Александр Стекольников, Станислав Ярушин, Анна Кузина, Анна Хилькевич, Константин Шелягин, Григорий Кокоткин, Елена Валюшкина, Сергей Пиоро, Сергей Мурзин

Описание:

Универ» - больше, чем просто сериал. «Универ» - проверенный друг с отличным чувством юмора, сотнями готовых лайфхаков на все случаи жизни и хорошей долей самоиронии. За эти 10 лет некоторые из актрис сериала, снявшись обнаженными для мужских журналов, стали депутатами в Государственной думе, женами завидных иностранных миллионеров и самыми популярными инстаграмерами. Многие актеры обзавелись прекрасным потомством, а одна сериальная пара даже вдохновила авторов на создание отдельного спиноффа. Но главные герои нового сезона по-прежнему в отличной форме: Маша снимется в проекте 18+, Майкл получит крупное наследство, Антон найдет замену Кристине, а Валя поверит в себя и почувствует свою мужскую силу. Оставаться молодыми и дерзкими парней заставит еще один весомый аргумент: в общагу заселятся две новенькие героини – сестры-двойняшки Ника и Вика.

Качество: WEB-DLRip
Формат: AVI

Видео: XviD, ~ 1500 Кбит/с, 720x400
Аудио: AC3, 2 ch, 128 Кбит/с
скриншот  скриншот  скриншот  

Общее
Полное имя : D:\Univer.14.2018.WEB-DLRip.Files-x/Univer.s14.01.2018.WEB-DLRip.Files-x.avi
Формат : AVI
Формат/Информация : Audio Video Interleave
Размер файла : 265 Мбайт
Продолжительность : 22 м. 40 с.
Общий поток : 1638 Кбит/сек
Программа кодирования : VirtualDubMod 1.5.10.2 (build 2540/release)
Библиотека кодирования : VirtualDubMod build 2540/release

Видео
Идентификатор : 0
Формат : MPEG-4 Visual
Профиль формата : Advanced Simple@L5
Параметр BVOP формата : 2
Параметр QPel формата : Нет
Параметр GMC формата : Без точки перехода
Параметр матрицы формата : Default (MPEG)
Идентификатор кодека : XVID
Идентификатор кодека/Подсказка : XviD
Продолжительность : 22 м. 40 с.
Битрейт : 1500 Кбит/сек
Ширина : 720 пикселей
Высота : 400 пикселей
Соотношение сторон : 16:9
Частота кадров : 25,000 кадров/сек
Цветовое пространство : YUV
Субдискретизация насыщенности : 4:2:0
Битовая глубина : 8 бит
Тип развёртки : Прогрессивная
Метод сжатия : С потерями
Бит/(Пиксели*Кадры) : 0.208
Размер потока : 243 Мбайт (92%)
Библиотека кодирования : XviD 1.2.1 (UTC 2008-12-04)

Аудио
Идентификатор : 1
Формат : AC-3
Формат/Информация : Audio Coding 3
Расширение режима : CM (complete main)
Параметр Endianness формата : Big
Идентификатор кодека : 2000
Продолжительность : 22 м. 39 с.
Вид битрейта : Постоянный
Битрейт : 128 Кбит/сек
Каналы : 2 канала
Расположение каналов : Front: L R
Частота : 44,1 КГц
Частота кадров : 28,711 кадров/сек (1536 spf)
Метод сжатия : С потерями
Размер потока : 20,8 Мбайт (8%)
Выравнивание : Разделение по промежуткам
Продолжительность промежутка : 40 мс. (1,00 видеокадр)
Время предзагрузки промежутка : 500 мс.

нимание! Раздача ведётся путём добавления новых серий; при каждом добавлении создаётся новый торрент. Чтобы начать докачку новой серии, пользователям необходимо сделать следующее:
(1) остановить скачивание,
(2) удалить старый торрент у себя из клиента (старые серии удалять не надо),
(3) скачать новый торрент и запустить его у себя в клиенте вместо старого, при этом указать клиенту путь в старую папку куда и должно происходить скачивание новых серий.
Ваш клиент при этом должен произвести хеширование (проверку) старой папки (если не производит сам - помогите ему сделать это), и будет докачивать только те серии которых у вас ещё нет. Старые серии при этом не удаляются, а продолжают раздаваться!
Eсли вы уже удалили старые серии, то предотвратить повторную закачку старых серий можно, отжав галочку в соответствующих местах при запуске нового торрента. По возможности, желательно не удалять старые серии как можно дольше чтобы релизёр не столько продолжал раздавать старые серии, а смог сконцентрироваться на новых.
piratbit.org



Скачать Универ. Новая общага через торрент http://i97.fastpic.ru/big/2017/1107/a5/6f91eff282aace4899a96d72d928c2a5.png Скачать фильм Универ. Новая общага через торрент бесплантно в хорошем качестве Описание: Универ» - больше, чем просто сериал. «Универ» - проверенный друг с отличным чувством юмора, сотнями готовых лайфхаков на все ... 8.7 10 20
Торрент: Зарегистрирован [2018-04-20 19:34] · скачан: 219 раз
Статус: √ проверено
Размер: 5.58 GB
Как cкачать? Как скачать Универ. Новая общага через торрент | UTorrent

% Раздел Тема Автор DL S | L
TNT serials [ 24.21 GB ] Универ. Новая общага / Сезон: 14 / Серии: 1-18 из 18 [2018 Ситком HDTV 1080i] bober100 Скачать
1 | 0
TNT serials [ 12.38 GB ] Универ. Новая общага / Сезон: 14 / Серии: 1-18 из 18 [2018 Ситком HDTVRip 720p] bober100 Скачать
1 | 0
TNT serials [ 6.48 GB ] Универ. Новая общага / Сезон: 14 / Серии: 1-18 из 18 [2018 Ситком HDTVRip-AVC] bober100 Скачать
1 | 0
TNT serials [ 5.8 GB ] Универ. Новая общага / Сезон: 14 / Серии: 1-18 из 18 [2018 Ситком SATRip] bober100 Скачать
1 | 0
TNT serials [ 11.41 GB ] Универ. Новая общага / Сезон: 14 / Серии: 1-18 из 18 [2018 Ситком WEB-DL 720p] bober100 Скачать
1 | 0
TNT serials [ 4.13 GB ] Универ. Новая общага / Сезон: 14 / Серии: 1-18 из 18 + Спец. выпуск [2018 Ситком HDTVRip] bober100 Скачать
1 | 0

28-11-2019 20:33  

Отключить всю рекламу на сайте


    Дорогой пользователь! Огромная просьба, поблагодарите релизера, оцените раздачу и оставьте свои комментарий, если Вы скачали Универ. Новая общага через торрент бесплатно! Внесите свою лепту в развитие PiratBit!
    Комментировать посты могут только пользователи прошедшие не сложную регистрацию
    Показать сообщения:    

    Универ. Новая общага через торрент
    Скачать бесплатно Универ. Новая общага
    Универ. Новая общага скачать торрент
    Универ. Новая общага смотреть онлайн
    Cкачать фильм Универ. Новая общага бесплатно
    Универ. Новая общага скачать торрент в хорошем качестве
    Универ. Новая общага смотреть онлайн бесплатно в хорошем качестве


    Вы не можете начинать темы
    Вы не можете отвечать на сообщения
    Вы не можете редактировать свои сообщения
    Вы не можете удалять свои сообщения
    Вы не можете голосовать в опросах
    Вы не можете прикреплять файлы к сообщениям
    Вы можете скачивать файлы