2 сезон

iTunes

WEBRip

1

2 сезон

iTunes

1 сезон

1 сезон

RePack

30

Новинка

ВАЖНО

ИГРА 18+

pack

RePack

MK11
pack

Легкие деньги

RePack

jed

RePack

fifa19

RePack

RDR2

RePack

NEED FOR SPEED™ PAYBACK

4 сезон

9 сезон

Бесстыжие 9 сезон

Все сериалы

все сериалы на PB.wtf

RePack

FAR CRY 5

Anonymous, доброй ночи, мы не успеваем собрать деньги на оплату серверов за февраль, помогите нам пожалуйста в это трудное время. В качестве благодарности мы отключим Вам всю рекламу на сайте (укажите свой ник в строку Ваше имя)!

×
  
Magnet ссылка

Червонный (Заза Буадзе) [2017, Драма, биография, история, WEB-DL 1080p] [rus, ukr] piratbit.org

Червонный через торрент piratbit.org

Размер: 3.3 GB | Добавлен: 2 года 10 мес. назад | Торрент скачан:209 раз
Скачать  

04-04-2018 07:13 Червонный Скачать торрент  

ЧервонныйГод выпуска: 2017
Страна: Украина
Жанр: Драма, биография, история
Продолжительность: 01:52:38
Перевод: Русский, Украинский
Субтитры: отсутствуют

Режиссер: Заза Буадзе



В ролях:

Николай Береза, Игорь Колтовский, Олег Шульга, Любовь Тищенко, Александр Мавриц, Олег Стефан, Владимир Шпудейко, Борис Орлов, Виктор Жданов, Валерий Швец, Андрей Ершов, Юрий Гончаров, Евгений Черников, Яков Ткаченко, Владимир Беляев, Евгений Меркулов, Леонид Заславский, Владислав Воронин, Владимир Канивец, Павел Юров, Вадим Нестерчук

Описание:

Сюжет ленты рассказывает о двух украинцах, одновременно воевавших за разные идеалы. Судьба свела их в одном лагере, теперь они на каторге: украинский повстанец Даниил Червонный и советский летчик Виктор Гуров. Червонный - с запада Украины. Гуров - с востока. Но родина у них одна, несмотря на различие в идеалах. Поняв это, двое украинских заключенных сообща пытаются противостоять репрессиям начальника лагеря и делают отчаянную, но отважную попытку вырваться на свободу, подняв в лагере настоящее восстание.

Качество: WEB-DL 1080p
Формат: MKV

Видео: MPEG-4 AVC, ~ 4000 Кбит/с, 1920x1080, 24.000 кадр/с
Аудио: AC3, 2 ch, 192 Кбит/с
скриншот  скриншот  скриншот  

Общее
Уникальный идентификатор : 213253623679917193772910197175098358196 (0xA06F2769E282C08AACAE22748E7D39B4)
Полное имя : F:\KinoZal4\Червоный.2017.WEB-DL.(1080p).mkv
Формат : Matroska
Версия формата : Version 4 / Version 2
Размер файла : 3,30 Гбайт
Продолжительность : 1 ч. 52 м.
Общий поток : 4191 Кбит/сек
Название фильма : Червоний (2017)
Дата кодирования : UTC 2018-04-03 06:36:28
Программа кодирования : mkvmerge v6.9.1 ('Blue Panther') 64bit built on Apr 18 2014 18:23:38
Библиотека кодирования : libebml v1.3.0 + libmatroska v1.4.1

Видео
Идентификатор : 1
Формат : AVC
Формат/Информация : Advanced Video Codec
Профиль формата : High@L4
Параметр CABAC формата : Да
Параметр ReFrames формата : 3 кадра
Идентификатор кодека : V_MPEG4/ISO/AVC
Продолжительность : 1 ч. 52 м.
Битрейт : 3915 Кбит/сек
Ширина : 1920 пикселей
Высота : 1080 пикселей
Соотношение сторон : 16:9
Режим частоты кадров : Постоянный
Частота кадров : 24,000 кадра/сек
Цветовое пространство : YUV
Субдискретизация насыщенности : 4:2:0
Битовая глубина : 8 бит
Тип развёртки : Прогрессивная
Бит/(Пиксели*Кадры) : 0.079
Размер потока : 3,08 Гбайт (93%)
Заголовок : Червоний (2017)
Язык : Ukrainian
Default : Да
Forced : Нет

Аудио
Идентификатор : 2
Формат : AC-3
Формат/Информация : Audio Coding 3
Расширение режима : CM (complete main)
Параметр Endianness формата : Big
Идентификатор кодека : A_AC3
Продолжительность : 1 ч. 52 м.
Вид битрейта : Постоянный
Битрейт : 192 Кбит/сек
Каналы : 2 канала
Расположение каналов : Front: L R
Частота : 48,0 КГц
Метод сжатия : С потерями
Размер потока : 155 Мбайт (5%)
Default : Да
Forced : Нет
piratbit.org



Скачать Червонный через торрент http://img12.lostpic.net/2018/04/04/2e3cddb66265b3474ec5efd54380349f.jpg Скачать фильм Червонный через торрент бесплантно в хорошем качестве Описание: Сюжет ленты рассказывает о двух украинцах, одновременно воевавших за разные идеалы. Судьба свела их в одном лагере, теперь они на ... 7.2 10 13
Info! Золотая раздача, скачанное не засчитывается.
Торрент: Зарегистрирован [2018-04-04 07:13] · скачан: 209 раз
Статус: √ проверено
Размер: 3.3 GB
Как cкачать? Как скачать Червонный через торрент | UTorrent

% Раздел Тема Автор DL S | L
Иностранные мультфильмы [ 1.42 GB ] Скуби-ду / Scoob! [2020 Мультфильм BDRip] - Twi7ter Скачать
32 | 1
Иностранные мультфильмы [ 2.13 GB ] Скуби-ду / Scoob! [2020 Мультфильм BDRip-AVC] bober100 Скачать
2 | 0
Иностранные мультфильмы [ 1.41 GB ] Скуби-ду / Scoob! [2020 Мультфильм BDRip-AVC] bober100 Скачать
1 | 0
Ultra HD (UHD: 2K, 4K, 8K) [ 43.14 GB ] Скуби-ду / Scoob! [2020 Мультфильм UHD BDRemux 2160p] bober100 Скачать
1 | 0
Зарубежные Мультфильмы (BDRip 1080p, 720p, Blu-ray, BD-Remux) [ 21.43 GB ] Скуби-ду / Scoob! [2020 Мультфильм BD Remux 1080p] bober100 Скачать
1 | 0
Зарубежные Мультфильмы (BDRip 1080p, 720p, Blu-ray, BD-Remux) [ 9.84 GB ] Скуби-ду / Scoob! [2020 Мультфильм BDRip 1080p] bober100 Скачать
1 | 0
Зарубежные Мультфильмы (BDRip 1080p, 720p, Blu-ray, BD-Remux) [ 4.8 GB ] Скуби-ду / Scoob! [2020 Мультфильм BDRip 720p] bober100 Скачать
4 | 0


Последний раз редактировалось: bober100 (2018-04-04 17:11), всего редактировалось 1 раз

28-11-2019 20:33  

Отключить всю рекламу на сайте

04-04-2018 10:54 Червонный Скачать торрент  

Язык то какой И кому перевод не требуется? Можно по подробнее. piratbit.org



04-04-2018 11:13 Червонный Скачать торрент  

незнаю, фильм походу псец какой депрессивный. даже от трейлера какое-то состояние... безысходности-беспросветности. наверно не буду смотреть

piratbit.org



04-04-2018 14:58 Червонный Скачать торрент  

ГОВНО.piratbit.org



04-04-2018 16:55 Червонный Скачать торрент  

жуть(херня) какая-то! я мимо пройдуpiratbit.org



04-04-2018 17:04 Червонный Скачать торрент  

антисоветчинка? Ещё и националистическая? Фтопку!piratbit.org



18-04-2018 17:49 Червонный Скачать торрент  

Фильм вышел удачный, вполне смотрибельный, но немного мрачноватый.piratbit.org



    Дорогой пользователь! Огромная просьба, поблагодарите релизера, оцените раздачу и оставьте свои комментарий, если Вы скачали Червонный через торрент бесплатно! Внесите свою лепту в развитие PiratBit!
    Комментировать посты могут только пользователи прошедшие не сложную регистрацию
    Показать сообщения:    

    Червонный через торрент
    Скачать бесплатно Червонный
    Червонный скачать торрент
    Червонный смотреть онлайн
    Cкачать фильм Червонный бесплатно
    Червонный скачать торрент в хорошем качестве
    Червонный смотреть онлайн бесплатно в хорошем качестве


    Вы не можете начинать темы
    Вы не можете отвечать на сообщения
    Вы не можете редактировать свои сообщения
    Вы не можете удалять свои сообщения
    Вы не можете голосовать в опросах
    Вы не можете прикреплять файлы к сообщениям
    Вы можете скачивать файлы