Достать ножи: Стеклянная луковица

MVO

Добыча

Дубляж

Уэнсдэй

1 сезон

Тор

Дубляж

13 клиническая

1 сезон

Жестокая ночь

MVO

Одни из нас

1 сезон

Deluxe

pack

Рекомендуем

30

Пиратка

ВАЖНО

ВАЖНО

Ghostwire

Пиратка

jed

RePack

nioh2

RePack

RDR2

RePack

NEED FOR SPEED™ PAYBACK

RePack

скачать торрент

Кинопоиск HD

Острые козырьки 6 сезон

6 сезон

FAR CRY 6

RePack

скачать торрент

Лицензия

скачать торрент

MVO

1

1 сезон

скачать торрент

1 сезон

скачать торрент

Лицензия

  

Охотники за привидениями 2 / Ghostbusters II (Айвен Райтман) [1989, фантастика, фэнтези, боевик, UHD BDRip 2160p] MVO

Охотники за привидениями 2 через торрент piratbit.org

Размер: 26.58 GB | Добавлен: 4 года 9 мес. назад | Торрент скачан:21 раз
Смотреть онлайн | Скачать | Поддержите нас   

05-04-2018 18:52 Охотники за привидениями 2 Скачать торрент  

Охотники за привидениями 2 / Ghostbusters II«Привидения вернулись... и напрасно!»
Год выпуска: 1989
Страна: США
Жанр: фантастика, фэнтези, боевик, комедия
Продолжительность: 01:48:18
Перевод: Профессиональный многоголосый
Субтитры: Русские, английские
Режиссер: Айвен Райтман
В ролях:

Билл Мюррей (Dr. Peter Venkman), Дэн Эйкройд (Dr. Raymond Stantz), Сигурни Уивер (Dana Barrett), Харольд Рэмис (Dr. Egon Spengler), Рик Морэнис (Louis Tully), Эрни Хадсон (Winston Zeddemore), Энни Поттс (Janine Melnitz), Питер МакНикол (Dr. Janosz Poha), Харрис Юлин (The Judge), Дэвид Маргулис (The Mayor of NY), Курт Фуллер (Hardemeyer), Джанет Марголин (The Prosecutor)
Описание:
Через пять лет все забыли о знаменитых охотниках, равно как и о самих привидениях. Но они и не думали исчезать... А это значит, что для отважной четвёрки снова есть работа. Теперь в их распоряжении новое современное оружие, которое поможет им одолеть даже самого страшного монстра. Облако чёрной энергии нависло над городом, а в городской канализации течёт река зловещего розового киселя. Наступает время последней решающей схватки!
Рейтинг:

MPAA: PG - Рекомендуется присутствие родителей
Качество: UHD BDRip 2160p
Формат: MKV
Видео: HEVC, HDR, 28.7 Мбит/с, 3840x1608, 23.976 Кадр/с
Аудио 1: Russian DTS 5.1 @ 1509 kbps | Видеосервис/BD CEE
Аудио 2: English TrueHD + Atmos Dolby Digital, 8 ch @ 4839 kbps
Навигация по главам: есть
Видео
Идентификатор : 1
Формат : HEVC
Формат/Информация : High Efficiency Video Coding
Профиль формата : Main 10@L5.1@High
Идентификатор кодека : V_MPEGH/ISO/HEVC
Продолжительность : 1 ч. 48 м.
Битрейт : 28,7 Мбит/сек
Ширина : 3840 пикселей
Высота : 1608 пикселей
Соотношение сторон : 2,40:1
Режим частоты кадров : Постоянный
Частота кадров : 23,976 (24000/1001) кадра/сек
Цветовое пространство : YUV
Субдискретизация насыщенности : 4:2:0 (Type 2)
Битовая глубина : 10 бит
Бит/(Пиксели*Кадры) : 0.194
Размер потока : 21,7 Гбайт (82%)
Библиотека кодирования : x265 2.6+14-f09f3b4a2115:[Windows][MSVC 1912][64 bit] 10bit
Настройки программы : cpuid=1173503 / frame-threads=5 / numa-pools=16,16 / wpp / no-pmode / no-pme / no-psnr / no-ssim / log-level=2 / input-csp=1 / input-res=3840x1608 / interlace=0 / total-frames=155832 / level-idc=51 / high-tier=1 / uhd-bd=0 / ref=4 / no-allow-non-conformance / repeat-headers / annexb / aud / hrd / info / hash=0 / no-temporal-layers / no-open-gop / min-keyint=24 / keyint=240 / gop-lookahead=0 / bframes=4 / b-adapt=2 / b-pyramid / bframe-bias=0 / rc-lookahead=25 / lookahead-slices=4 / scenecut=40 / no-intra-refresh / ctu=64 / min-cu-size=8 / rect / no-amp / max-tu-size=32 / tu-inter-depth=1 / tu-intra-depth=1 / limit-tu=0 / rdoq-level=2 / dynamic-rd=0.00 / no-ssim-rd / signhide / no-tskip / nr-intra=0 / nr-inter=0 / no-constrained-intra / no-strong-intra-smoothing / max-merge=3 / limit-refs=3 / limit-modes / me=3 / subme=3 / merange=57 / temporal-mvp / weightp / no-weightb / no-analyze-src-pics / deblock=-3:-3 / no-sao / no-sao-non-deblock / rd=4 / no-early-skip / rskip / no-fast-intra / no-tskip-fast / no-cu-lossless / no-b-intra / no-splitrd-skip / rdpenalty=0 / psy-rd=2.00 / psy-rdoq=1.00 / no-rd-refine / analysis-reuse-mode=0 / no-lossless / cbqpoffs=0 / crqpoffs=0 / rc=crf / crf=19.0 / qcomp=0.60 / qpstep=4 / stats-write=0 / stats-read=0 / vbv-maxrate=160000 / vbv-bufsize=160000 / vbv-init=0.9 / crf-max=0.0 / crf-min=0.0 / ipratio=1.40 / pbratio=1.30 / aq-mode=1 / aq-strength=1.00 / cutree / zone-count=0 / no-strict-cbr / qg-size=32 / no-rc-grain / qpmax=69 / qpmin=0 / no-const-vbv / sar=1 / overscan=0 / videoformat=5 / range=0 / colorprim=9 / transfer=16 / colormatrix=9 / chromaloc=1 / chromaloc-top=2 / chromaloc-bottom=2 / display-window=0 / master-display=G(13250,34500)B(7500,3000)R(34000,16000)WP(15635,16450)L(40000000,50) / max-cll=9887,785 / min-luma=0 / max-luma=1023 / log2-max-poc-lsb=8 / vui-timing-info / vui-hrd-info / slices=1 / opt-qp-pps / opt-ref-list-length-pps / no-multi-pass-opt-rps / scenecut-bias=0.05 / no-opt-cu-delta-qp / no-aq-motion / hdr / hdr-opt / no-dhdr10-opt / analysis-reuse-level=5 / scale-factor=0 / refine-intra=0 / refine-inter=0 / refine-mv=0 / no-limit-sao / ctu-info=0 / no-lowpass-dct / refine-mv-type=0 / copy-pic=1
Default : Да
Forced : Нет
Цветовой диапазон : Limited
Основные цвета : BT.2020
Характеристики трансфера : PQ
Коэффициенты матрицы : BT.2020 non-constant
MasteringDisplay_ColorPrimaries : R: x=0.680000 y=0.320000, G: x=0.265000 y=0.690000, B: x=0.150000 y=0.060000, White point: x=0.312700 y=0.329000
MasteringDisplay_Luminance : min: 0.0050 cd/m2, max: 4000.0000 cd/m2
MaxCLL : 9887 cd/m2
MaxFALL : 785 cd/m2

Аудио #1
Идентификатор : 2
Формат : DTS
Формат/Информация : Digital Theater Systems
Идентификатор кодека : A_DTS
Продолжительность : 1 ч. 48 м.
Вид битрейта : Постоянный
Битрейт : 1509 Кбит/сек
Каналы : 6 каналов
Расположение каналов : Front: L C R, Side: L R, LFE
Частота : 48,0 КГц
Частота кадров : 93,750 кадра/сек (512 SPF)
Битовая глубина : 24 бит
Метод сжатия : С потерями
Размер потока : 1,14 Гбайт (4%)
Заголовок : [Видеосервис/BD CEE] Mvo - DTS 5.1 @ 1536 kbps
Язык : Russian
Default : Нет
Forced : Нет

Аудио #2
Идентификатор : 3
Формат : TrueHD
Профиль формата : TrueHD+Atmos / TrueHD
Идентификатор кодека : A_TRUEHD
Продолжительность : 1 ч. 48 м.
Вид битрейта : Переменный
Битрейт : 4839 Кбит/сек
Максимальный битрейт : 7701 Кбит/сек
Каналы : Object Based / 8 каналов
Расположение каналов : Object Based / Front: L C R, Side: L R, Back: L R, LFE
Частота : / 48,0 КГц
Частота кадров : 1200,000 кадров/сек (40 SPF)
Метод сжатия : Без потерь
Размер потока : 3,66 Гбайт (14%)
Заголовок : Atmos
Язык : English
Default : Нет
Forced : Нет

Текст #1
Идентификатор : 4
Формат : UTF-8
Идентификатор кодека : S_TEXT/UTF8
Идентификатор кодека/Информация : UTF-8 Plain Text
Продолжительность : 1 ч. 39 м.
Битрейт : 77 бит/сек
ElementCount : 853
Размер потока : 56,5 Кбайт (0%)
Заголовок : [SRT/UTF8] Full
Язык : Russian
Default : Нет
Forced : Нет

Текст #2
Идентификатор : 5
Формат : UTF-8
Идентификатор кодека : S_TEXT/UTF8
Идентификатор кодека/Информация : UTF-8 Plain Text
Продолжительность : 1 ч. 46 м.
Битрейт : 82 бит/сек
ElementCount : 1702
Размер потока : 64,2 Кбайт (0%)
Заголовок : [SRT/UTF8] Full
Язык : English
Default : Нет
Forced : Нет

Меню
00:00:00.000 : :Start
00:05:00.549 : :«World of the Psychic»
00:11:44.162 : :Dr. Janosz Poha
00:18:16.012 : :Ray's Occult Books
00:23:36.498 : :Investigating Oscar
00:32:39.958 : :Late-Night Excavation
00:39:20.817 : :Vigo Commands
00:46:15.147 : :Down the Shaft
00:52:36.487 : :Great Blackout of 1989
00:58:45.981 : :Their Day in Court
01:05:34.055 : :The Scoleri Brothers
01:14:06.776 : :Two in the Box
01:19:22.216 : :Mood Slime
01:27:22.529 : :A Tub Full of Slime
01:33:06.539 : :Peter's Place
01:38:10.635 : :Vigo 101



Скачать Охотники за привидениями 2 через торрент http://i99.fastpic.ru/big/2017/1229/63/c2cddac08865877fa5d5d8b392493863.png Скачать, смотреть онлайн Охотники за привидениями 2 бесплантно в хорошем качестве Описание: Через пять лет все забыли о знаменитых охотниках, равно как и о самих привидениях. Но они и не думали исчезать... А это значит, ... 10 10 4
Info! Золотая раздача, скачанное не засчитывается.
Торрент: Зарегистрирован [2018-04-05 18:52] · скачан: 21 раз
Статус: √ проверено
Размер: 26.58 GB
Как cкачать? Как скачать Охотники за привидениями 2 через торрент | UTorrent

% Раздел Тема Автор DL S | L
Ultra HD (UHD: 2K, 4K, 8K) [ 70.17 GB ] Охотники за привидениями 2 / Ghostbusters II | MVO + 3xAVO | 2160p sheker187 Скачать
1 | 0

28-11-2019 20:33  


Отключить вcю реклaмy на сайте, в т.ч. и в плеере онлайн просмотра!

    Дорогой пользователь! Огромная просьба, поблагодарите релизера, оцените раздачу и оставьте свои комментарий, если Вы скачали Охотники за привидениями 2 через торрент бесплатно!!
    Комментировать посты могут только пользователи прошедшие не сложную регистрацию
    Показать сообщения:    


    Охотники за привидениями 2 через торрент
    Скачать бесплатно Охотники за привидениями 2
    Охотники за привидениями 2 скачать торрент
    Охотники за привидениями 2 смотреть онлайн
    Cкачать фильм Охотники за привидениями 2 бесплатно
    Охотники за привидениями 2 скачать торрент в хорошем качестве
    Охотники за привидениями 2 смотреть онлайн бесплатно в хорошем качестве
    Вы не можете начинать темы
    Вы не можете отвечать на сообщения
    Вы не можете редактировать свои сообщения
    Вы не можете удалять свои сообщения
    Вы не можете голосовать в опросах
    Вы не можете прикреплять файлы к сообщениям
    Вы можете скачивать файлы
    Охотники за привидениями 2 / Ghostbusters II [1989, фантастика, фэнтези, боевик, UHD BDRip 2160p] MVO смотреть онлайн, скачать торрент picoco.icu