Доктор Стрэндж

Лицензия

Добыча

Дубляж

Уэнсдэй

1 сезон

Тор

Дубляж

В эфире

Дубляж

Там, где раки поют

MVO

Властелин колец

1 сезон

Deluxe

pack

Рекомендуем

30

Пиратка

ВАЖНО

ВАЖНО

Ghostwire

Пиратка

jed

RePack

nioh2

RePack

RDR2

RePack

NEED FOR SPEED™ PAYBACK

RePack

скачать торрент

Кинопоиск HD

Острые козырьки 6 сезон

6 сезон

FAR CRY 6

RePack

скачать торрент

Лицензия

скачать торрент

MVO

1

1 сезон

скачать торрент

1 сезон

скачать торрент

Лицензия

  

План Б: Нафиг план А / Plan B: Scheiss auf Plan A (Уфук Генк, Михаэль Попеску) [2016, Боевик, комедия, BDRip 720p] [DVO] (datynet & Galina Vasyukova)

План Б: Нафиг план А через торрент piratbit.org

Раздают: 1 [ 0 KB/s ]
Размер: 1.32 GB | Добавлен: 4 года 8 мес. назад | Торрент скачан:460 раз
Смотреть онлайн | Скачать   

07-04-2018 04:42 План Б: Нафиг план А Скачать торрент  

План Б: Нафиг план А / Plan B: Scheiss auf Plan A Год выхода: 2016
Жанр: Боевик, комедия
Страна: Германия
Студия: Lightburst Pictures,Papermoon Films, Reel Deal Action
Продолжительность: 01:38:53
Озвучание: Любительское (двухголосое) [datynet & Galina Vasyukova] ; перевод: Куценко

Режиссер: Уфук Генк / Ufuk Genc, Михаэль Попеску / Michael Popescu

В ролях: Кан Айдын, Чарли Юн, Фонг Джанг, Эвген Боатенг, Лорен Дэниелс, Юлия Дитце, Гедеон Буркхард, Генри Мейер, Флориан Клейн, Дженнифер Бишоф, Линда Гегуш, Норберт Гафури, Хайди Манимейкер, Леа Морнар, Фрэнк Рихарц, Лоренц Хидэёси Рувве, Измаил Сахин.

Описание:

В современном Берлине три друга-каскадера (турок, кореец и таец) никак не могут найти приличную работу. Зато их находят приключения — жену местного крёстного отца, русского разумеется, похитили, а парней подставили, и теперь нашим героям вместе с бестолковым африканским другом придется обежать весь Берлин, чтобы восстановить справедливость.





Файл

Кодек: x.264
Качество: BDRip 720
Видео: 1280x720 (4:2:0), 25fps, MPEG4 Video (H264) Main@L3.1 ~1 664 kb/s avg, 0.074 bit/ pixel
Звук: 48 kHz, MPEG Layer 3, 2 ch, ~192.00 kbps avg
Субтитры: отсутствуют

Семпл
General
Unique ID : 211498470884860007596814481902051945438 (0x9F1D1FB31F1730B1A3D1F9F3C6FA6BDE)
Complete name : F:\Plan.B.Scheiss.auf.Plan.A.mkv
Format : Matroska
Format version : Version 4 / Version 2
File size : 1.32 GiB
Duration : 1 h 39 min
Overall bit rate : 1 894 kb/s
Encoded date : UTC 2018-04-06 08:57:50
Writing application : mkvmerge v9.6.0 ('Slave To Your Mind') 64bit
Writing library : libebml v1.3.4 + libmatroska v1.4.5

Video
ID : 1
Format : AVC
Format/Info : Advanced Video Codec
Format profile : Main@L3.1
Format settings : CABAC / 2 Ref Frames
Format settings, CABAC : Yes
Format settings, RefFrames : 2 frames
Format settings, GOP : M=1, N=13
Codec ID : V_MPEG4/ISO/AVC
Duration : 1 h 39 min
Bit rate : 1 664 kb/s
Width : 1 280 pixels
Height : 720 pixels
Display aspect ratio : 16:9
Frame rate mode : Constant
Frame rate : 25.000 FPS
Color space : YUV
Chroma subsampling : 4:2:0
Bit depth : 8 bits
Scan type : Progressive
Bits/(Pixel*Frame) : 0.072
Stream size : 1.16 GiB (88%)
Default : Yes
Forced : No

Audio
ID : 2
Format : MPEG Audio
Format version : Version 1
Format profile : Layer 3
Codec ID : A_MPEG/L3
Codec ID/Hint : MP3
Duration : 1 h 39 min
Bit rate mode : Constant
Bit rate : 192 kb/s
Channel(s) : 2 channels
Sampling rate : 48.0 kHz
Compression mode : Lossy
Delay relative to video : -40 ms
Stream size : 137 MiB (10%)
Default : Yes
Forced : No
скриншот  скриншот  скриншот  
Релиз от:



Скачать План Б: Нафиг план А через торрент https://c.radikal.ru/c28/1804/eb/4adfc6332153.jpg Скачать, смотреть онлайн План Б: Нафиг план А бесплантно в хорошем качестве Описание:В современном Берлине три друга-каскадера (турок, кореец и таец) никак не могут найти приличную работу. Зато их находят ... 8.7 10 19
Торрент: Зарегистрирован [2018-04-07 04:42] · скачан: 460 раз
Статус: # сомнительно
Размер: 1.32 GB
Как cкачать? Как скачать План Б: Нафиг план А через торрент | UTorrent

28-11-2019 20:33  


Отключить вcю реклaмy на сайте, в т.ч. и в плеере онлайн просмотра!

07-04-2018 06:24 План Б: Нафиг план А Скачать торрент  

killermax2013,

rating

Фильм 2016 года. Поправил.



07-04-2018 06:25 План Б: Нафиг план А Скачать торрент  

Топик был перенесен из форума Фильмы 2017 (Звук TS, Cam, VO, DVO) в форум Фильмы [HD 720p, 1080p] (Звук Cam, VO, DVO)


-Lexx-



07-04-2018 19:16 План Б: Нафиг план А Скачать торрент  

кто нибудь рискнул ?)



09-04-2018 06:16 План Б: Нафиг план А Скачать торрент  

Два китайца, негр и индус. Новый Берлин. Качать не буду.



25-04-2018 12:24 План Б: Нафиг план А Скачать торрент  

скачал сэмпл, посмеялся, негр тот еще фрукт надеюсь это не единственный смешной момент, скачаю полностью, спасибо!



    Дорогой пользователь! Огромная просьба, поблагодарите релизера, оцените раздачу и оставьте свои комментарий, если Вы скачали План Б: Нафиг план А через торрент бесплатно!!
    Комментировать посты могут только пользователи прошедшие не сложную регистрацию
    Показать сообщения:    


    План Б: Нафиг план А через торрент
    Скачать бесплатно План Б: Нафиг план А
    План Б: Нафиг план А скачать торрент
    План Б: Нафиг план А смотреть онлайн
    Cкачать фильм План Б: Нафиг план А бесплатно
    План Б: Нафиг план А скачать торрент в хорошем качестве
    План Б: Нафиг план А смотреть онлайн бесплатно в хорошем качестве
    Вы не можете начинать темы
    Вы не можете отвечать на сообщения
    Вы не можете редактировать свои сообщения
    Вы не можете удалять свои сообщения
    Вы не можете голосовать в опросах
    Вы не можете прикреплять файлы к сообщениям
    Вы можете скачивать файлы
    План Б: Нафиг план А / Plan B: Scheiss auf Plan A [2016, Боевик, комедия, BDRip 720p] [DVO] смотреть онлайн, скачать торрент picoco.icu