Достать ножи: Стеклянная луковица

MVO

Добыча

Дубляж

Уэнсдэй

1 сезон

Тор

Дубляж

13 клиническая

1 сезон

Жестокая ночь

MVO

Одни из нас

1 сезон

Deluxe

pack

Рекомендуем

30

Пиратка

ВАЖНО

ВАЖНО

Ghostwire

Пиратка

jed

RePack

nioh2

RePack

RDR2

RePack

NEED FOR SPEED™ PAYBACK

RePack

скачать торрент

Кинопоиск HD

Острые козырьки 6 сезон

6 сезон

FAR CRY 6

RePack

скачать торрент

Лицензия

скачать торрент

MVO

1

1 сезон

скачать торрент

1 сезон

скачать торрент

Лицензия

  

Величайший шоумен / The Greatest Showman (Майкл Грэйси) [2017, драма, биография, мюзикл, UHD BDRip 2160p] MVO [HDRezka] +Дубляж (rus, ukr) [iTunes]

Величайший шоумен через торрент piratbit.org

Размер: 10.2 GB | Добавлен: 4 года 9 мес. назад | Торрент скачан:79 раз
Смотреть онлайн | Скачать | Поддержите нас   

07-04-2018 09:46 Величайший шоумен Скачать торрент  

Величайший шоуменThe Greatest Showman«Невозможное возможно»
Год выпуска: 2017
Страна: США
Жанр: драма, биография, мюзикл
Продолжительность: 01:44:49
Перевод:

#1. Дублированный | iTunes
#2. Профессиональный (многоголосый) | HDRezka

Субтитры: Русские (Форсированные, полные), украинские (Форсированные, полные), английские (Forced, Full)

Режиссер: Майкл Грэйси

ratingСемпл

В ролях:


Хью Джекман (P.T. Barnum), Зак Эфрон (Phillip Carlyle), Мишель Уильямс (Charity Barnum), Ребекка Фергюсон (Jenny Lind), Зендея (Anne Wheeler), Кила Сеттл (Lettie Lutz), Яхья Абдул-Матин II (W.D. Wheeler), Остин Джонсон (Caroline Barnum), Эллис Рубин (Young Barnum), Скайлар Данн (Young Charity), Кэмерон Сили (Helen Barnum), Сэм Хамфри (Tom Thumb)
Описание:

Финеас Тейлор Барнум всегда мечтал войти в историю, но все его занятия не приносили ему удовольствия. И когда, казалось, весь мир обернулся против него, он решает пойти вслед за своей мечтой. Барнум создает завораживающее представление-сенсацию, которое стало рождением мирового шоу-бизнеса. Будучи никем и не имея ничего, он создал свой цирк и сделал его самым известным гастролирующим цирком в США, известность которого вышла далеко за пределы Американского континента. Во многом именно Финеас начал показывать людей с очень специфической внешностью (так называемое шоу уродов - «freakshow») и зарабатывать на этом деньги. У него были и сиамские близнецы, и человек с волосами на лице, и даже женщина-великанша. Много раз его цирк и построенные им музеи сгорали, но это его никогда не останавливало.

Биографическая драма-мюзикл снята режиссером Майклом Грейси, для которого данный фильм является дебютом в режиссерской карьере.

Качество: UHD BDRip 2160p
Формат: MKV

Видео: HEVC, 12.0 Mбит/с, 3840x1600, 23.976 кадр/с
Аудио#1: Русский (AC3, 6 ch, 384 Кбит/с) / Дублированный (iTunes)
Аудио#2: Украинский (AC3, 2 ch, 224 Кбит/с) / Дублированный (iTunes)
Аудио#3: Русский (AC3, 6 ch, 640 Кбит/с) / (HDRezka)
Аудио#4: Английский (AC3, 6 ch, 640 Кбит/с)
скриншот   скриншот   скриншот   скриншот  

General
Unique ID : 290340735304131352162972925763448725338 (0xDA6D9774648FD6FB939C67786777DF5A)
Complete name : D:uTorrentVelichaishiy.shoumen.2017.BDRip.2160p.HDR.MediaClub.mkv
Format : Matroska
Format version : Version 4 / Version 2
File size : 10.2 GiB
Duration : 1 h 44 min
Overall bit rate : 13.9 Mb/s
Encoded date : UTC 2018-04-07 07:27:57
Writing application : mkvmerge v19.0.0 ('Brave Captain') 64-bit
Writing library : libebml v1.3.5 + libmatroska v1.4.8
Cover : Yes
Attachments : cover.jpg

Video
ID : 1
Format : HEVC
Format/Info : High Efficiency Video Coding
Commercial name : HDR10
Format profile : Main 10@L5.1@High
Codec ID : V_MPEGH/ISO/HEVC
Duration : 1 h 44 min
Bit rate : 12.0 Mb/s
Width : 3 840 pixels
Height : 1 600 pixels
Display aspect ratio : 2.40:1
Frame rate mode : Constant
Frame rate : 23.976 (24000/1001) FPS
Color space : YUV
Chroma subsampling : 4:2:0 (Type 2)
Bit depth : 10 bits
Bits/(Pixel*Frame) : 0.082
Stream size : 8.82 GiB (86%)
Title : BDRip.2160p.UHD.HDR by Silverok
Writing library : x265 2.7+3-0b781d592c8e:[Windows][GCC 6.3.0][64 bit] 10bit
Encoding settings : cpuid=1173503 / frame-threads=4 / numa-pools=16 / wpp / no-pmode / no-pme / no-psnr / no-ssim / log-level=2 / input-csp=1 / input-res=3840x1600 / interlace=0 / total-frames=150792 / level-idc=51 / high-tier=1 / uhd-bd=0 / ref=4 / no-allow-non-conformance / repeat-headers / annexb / aud / hrd / info / hash=0 / no-temporal-layers / no-open-gop / min-keyint=24 / keyint=240 / gop-lookahead=0 / bframes=4 / b-adapt=2 / b-pyramid / bframe-bias=0 / rc-lookahead=25 / lookahead-slices=4 / scenecut=40 / radl=0 / no-intra-refresh / ctu=64 / min-cu-size=8 / rect / no-amp / max-tu-size=32 / tu-inter-depth=1 / tu-intra-depth=1 / limit-tu=0 / rdoq-level=2 / dynamic-rd=0.00 / no-ssim-rd / signhide / no-tskip / nr-intra=0 / nr-inter=0 / no-constrained-intra / no-strong-intra-smoothing / max-merge=3 / limit-refs=3 / limit-modes / me=3 / subme=3 / merange=57 / temporal-mvp / weightp / no-weightb / no-analyze-src-pics / deblock=-3:-3 / no-sao / no-sao-non-deblock / rd=4 / no-early-skip / rskip / no-fast-intra / no-tskip-fast / no-cu-lossless / no-b-intra / no-splitrd-skip / rdpenalty=0 / psy-rd=2.00 / psy-rdoq=1.00 / no-rd-refine / no-lossless / cbqpoffs=0 / crqpoffs=0 / rc=crf / crf=17.0 / qcomp=0.60 / qpstep=4 / stats-write=0 / stats-read=0 / vbv-maxrate=160000 / vbv-bufsize=160000 / vbv-init=0.9 / crf-max=0.0 / crf-min=0.0 / ipratio=1.40 / pbratio=1.30 / aq-mode=1 / aq-strength=1.00 / cutree / zone-count=0 / no-strict-cbr / qg-size=32 / no-rc-grain / qpmax=69 / qpmin=0 / no-const-vbv / sar=1 / overscan=0 / videoformat=5 / range=0 / colorprim=9 / transfer=16 / colormatrix=9 / chromaloc=1 / chromaloc-top=2 / chromaloc-bottom=2 / display-window=0 / master-display=G(13250,34500)B(7500,3000)R(34000,16000)WP(15635,16450)L(10000000,50) / max-cll=0,0 / min-luma=0 / max-luma=1023 / log2-max-poc-lsb=8 / vui-timing-info / vui-hrd-info / slices=1 / no-opt-qp-pps / no-opt-ref-list-length-pps / no-multi-pass-opt-rps / scenecut-bias=0.05 / no-opt-cu-delta-qp / no-aq-motion / hdr / hdr-opt / no-dhdr10-opt / analysis-reuse-level=5 / scale-factor=0 / refine-intra=0 / refine-inter=0 / refine-mv=0 / no-limit-sao / ctu-info=0 / no-lowpass-dct / refine-mv-type=0 / copy-pic=1
Default : Yes
Forced : No
Color range : Limited
Color primaries : BT.2020
Transfer characteristics : PQ
Matrix coefficients : BT.2020 non-constant
Mastering display color primaries : BT.709
Mastering display luminance : min: 0.0050 cd/m2, max: 1000 cd/m2

Audio #1
ID : 2
Format : AC-3
Format/Info : Audio Coding 3
Codec ID : A_AC3
Duration : 1 h 44 min
Bit rate mode : Constant
Bit rate : 384 kb/s
Channel(s) : 6 channels
Channel positions : Front: L C R, Side: L R, LFE
Sampling rate : 48.0 kHz
Frame rate : 31.250 FPS (1536 SPF)
Bit depth : 16 bits
Compression mode : Lossy
Stream size : 288 MiB (3%)
Title : Дублированный (iTunes)
Language : Russian
Service kind : Complete Main
Default : Yes
Forced : No

Audio #2
ID : 3
Format : AC-3
Format/Info : Audio Coding 3
Codec ID : A_AC3
Duration : 1 h 44 min
Bit rate mode : Constant
Bit rate : 224 kb/s
Channel(s) : 2 channels
Channel positions : Front: L R
Sampling rate : 48.0 kHz
Frame rate : 31.250 FPS (1536 SPF)
Bit depth : 16 bits
Compression mode : Lossy
Stream size : 168 MiB (2%)
Title : Дублированный (iTunes)
Language : Ukrainian
Service kind : Complete Main
Default : No
Forced : No

Audio #3
ID : 4
Format : AC-3
Format/Info : Audio Coding 3
Codec ID : A_AC3
Duration : 1 h 44 min
Bit rate mode : Constant
Bit rate : 640 kb/s
Channel(s) : 6 channels
Channel positions : Front: L C R, Side: L R, LFE
Sampling rate : 48.0 kHz
Frame rate : 31.250 FPS (1536 SPF)
Bit depth : 16 bits
Compression mode : Lossy
Stream size : 480 MiB (5%)
Title : профессиональный многоголосый (HDRezka)
Language : Russian
Service kind : Complete Main
Default : No
Forced : No

Audio #4
ID : 5
Format : AC-3
Format/Info : Audio Coding 3
Codec ID : A_AC3
Duration : 1 h 44 min
Bit rate mode : Constant
Bit rate : 640 kb/s
Channel(s) : 6 channels
Channel positions : Front: L C R, Side: L R, LFE
Sampling rate : 48.0 kHz
Frame rate : 31.250 FPS (1536 SPF)
Bit depth : 16 bits
Compression mode : Lossy
Stream size : 480 MiB (5%)
Language : English
Service kind : Complete Main
Default : No
Forced : No

Text #1
ID : 6
Format : UTF-8
Codec ID : S_TEXT/UTF8
Codec ID/Info : UTF-8 Plain Text
Duration : 1 h 36 min
Bit rate : 39 b/s
Count of elements : 474
Stream size : 27.6 KiB (0%)
Title : Forced
Language : Russian
Default : Yes
Forced : No

Text #2
ID : 7
Format : UTF-8
Codec ID : S_TEXT/UTF8
Codec ID/Info : UTF-8 Plain Text
Duration : 1 h 43 min
Bit rate : 92 b/s
Count of elements : 1388
Stream size : 70.4 KiB (0%)
Title : Full
Language : Russian
Default : No
Forced : No

Text #3
ID : 8
Format : UTF-8
Codec ID : S_TEXT/UTF8
Codec ID/Info : UTF-8 Plain Text
Duration : 1 h 36 min
Bit rate : 44 b/s
Count of elements : 559
Stream size : 31.6 KiB (0%)
Title : Forced
Language : Ukrainian
Default : No
Forced : No

Text #4
ID : 9
Format : UTF-8
Codec ID : S_TEXT/UTF8
Codec ID/Info : UTF-8 Plain Text
Duration : 1 h 43 min
Bit rate : 98 b/s
Count of elements : 1488
Stream size : 75.2 KiB (0%)
Title : Full
Language : Ukrainian
Default : No
Forced : No

Text #5
ID : 10
Format : UTF-8
Codec ID : S_TEXT/UTF8
Codec ID/Info : UTF-8 Plain Text
Duration : 1 h 36 min
Bit rate : 77 b/s
Count of elements : 1335
Stream size : 54.5 KiB (0%)
Title : Forced
Language : English
Default : No
Forced : No

Text #6
ID : 11
Format : UTF-8
Codec ID : S_TEXT/UTF8
Codec ID/Info : UTF-8 Plain Text
Duration : 1 h 43 min
Bit rate : 77 b/s
Count of elements : 1864
Stream size : 58.7 KiB (0%)
Title : SDH
Language : English
Default : No
Forced : No

Menu
00:00:00.000 : en:00:00:00.000
00:03:21.618 : en:00:03:21.618
00:11:33.985 : en:00:11:33.985
00:16:21.314 : en:00:16:21.314
00:21:13.731 : en:00:21:13.731
00:25:04.169 : en:00:25:04.169
00:32:10.178 : en:00:32:10.178
00:36:09.626 : en:00:36:09.626
00:41:38.413 : en:00:41:38.413
00:44:41.053 : en:00:44:41.053
00:48:24.151 : en:00:48:24.151
00:53:11.146 : en:00:53:11.146
00:56:20.711 : en:00:56:20.711
01:01:34.816 : en:01:01:34.816
01:07:33.883 : en:01:07:33.883
01:12:00.983 : en:01:12:00.983
01:18:23.699 : en:01:18:23.699
01:22:07.131 : en:01:22:07.131
01:29:04.798 : en:01:29:04.798
01:37:09.449 : en:01:37:09.449




Скачать Величайший шоумен через торрент https://pic1.kartinco.top/images/11/3g6ad.jpg Скачать, смотреть онлайн Величайший шоумен бесплантно в хорошем качестве Описание: Финеас Тейлор Барнум всегда мечтал войти в историю, но все его занятия не приносили ему удовольствия. И когда, казалось, весь мир ... 10 10 3
Торрент: Зарегистрирован [2018-04-07 09:46] · скачан: 79 раз
Статус: √ проверено
Размер: 10.2 GB
Как cкачать? Как скачать Величайший шоумен через торрент | UTorrent

% Раздел Тема Автор DL S | L
Ultra HD (UHD: 2K, 4K, 8K) [ 58.78 GB ] Величайший шоумен / The Greatest Showman | DUB | 2160p sheker187 Скачать
1 | 0
Ultra HD (UHD: 2K, 4K, 8K) [ 50.47 GB ] Величайший шоумен / The Greatest Showman | DUB | 2160p sheker187 Скачать
1 | 0
Фильмы 2017 [DVDrip, WEB-DLRip, HDrip] (DUB, MVO) [ 1.87 GB ] Величайший шоумен / The Greatest Showman | Лицензия | BDRip-AVC Enigma2010 Скачать
1 | 0
Фильмы [HD 720p, 1080p] (Хороший звук DUB, MVO) [ 8.05 GB ] Величайший шоумен / The Greatest Showman | Лицензия | 1080p bober100 Скачать
1 | 0
Ultra HD (UHD: 2K, 4K, 8K) [ 13.9 GB ] Величайший шоумен / The Greatest Showman | Лицензия | 2160p bober100 Скачать
1 | 0
Фильмы (Blu-ray, BD-Remux, HDDVD) [ 22.34 GB ] Величайший шоумен / The Greatest Showman | Лицензия | BD Remux 1080p bober100 Скачать
7 | 0
Фильмы 2017 [DVDrip, WEB-DLRip, HDrip] (DUB, MVO) [ 746 MB ] Величайший шоумен / The Greatest Showman | Лицензия | HDRip bober100 Скачать
1 | 0

28-11-2019 20:33  


Отключить вcю реклaмy на сайте, в т.ч. и в плеере онлайн просмотра!

    Дорогой пользователь! Огромная просьба, поблагодарите релизера, оцените раздачу и оставьте свои комментарий, если Вы скачали Величайший шоумен через торрент бесплатно!!
    Комментировать посты могут только пользователи прошедшие не сложную регистрацию
    Показать сообщения:    


    Величайший шоумен через торрент
    Скачать бесплатно Величайший шоумен
    Величайший шоумен скачать торрент
    Величайший шоумен смотреть онлайн
    Cкачать фильм Величайший шоумен бесплатно
    Величайший шоумен скачать торрент в хорошем качестве
    Величайший шоумен смотреть онлайн бесплатно в хорошем качестве
    Вы не можете начинать темы
    Вы не можете отвечать на сообщения
    Вы не можете редактировать свои сообщения
    Вы не можете удалять свои сообщения
    Вы не можете голосовать в опросах
    Вы не можете прикреплять файлы к сообщениям
    Вы можете скачивать файлы
    Величайший шоумен / The Greatest Showman [2017, драма, биография, мюзикл, UHD BDRip 2160p] MVO [HDRezka] +Дубляж [iTunes] смотреть онлайн, скачать торрент picoco.icu