Достать ножи: Стеклянная луковица

MVO

Добыча

Дубляж

Уэнсдэй

1 сезон

Тор

Дубляж

13 клиническая

1 сезон

Жестокая ночь

MVO

Одни из нас

1 сезон

Deluxe

pack

Рекомендуем

30

Пиратка

ВАЖНО

ВАЖНО

Ghostwire

Пиратка

jed

RePack

nioh2

RePack

RDR2

RePack

NEED FOR SPEED™ PAYBACK

RePack

скачать торрент

Кинопоиск HD

Острые козырьки 6 сезон

6 сезон

FAR CRY 6

RePack

скачать торрент

Лицензия

скачать торрент

MVO

1

1 сезон

скачать торрент

1 сезон

скачать торрент

Лицензия

  

Знамение / Knowing (Алекс Пройас) [2009, фантастика, триллер, драма, UHD BDRip 2160p] Дубляж (rus, ukr) + MVO + 2xAVO

Знамение через торрент piratbit.org

Размер: 15.79 GB | Добавлен: 4 года 9 мес. назад | Торрент скачан:22 раза
Смотреть онлайн | Скачать | Поддержите нас   

12-04-2018 02:20 Знамение Скачать торрент  

Знамение / Knowing«Что будет, когда закончатся числа?»
Год выпуска: 2009
Страна: США, Великобритания, Австралия
Жанр: фантастика, триллер, драма, детектив
Продолжительность: 02:01:29
Перевод: Дублированный, профессиональный многоголосый, авторский
Субтитры: Русские, английские
Режиссер: Алекс Пройас
В ролях:

Николас Кейдж (John Koestler), Роуз Бирн (Diana), Чандлер Кентербери (Caleb Koestler), Лара Робинсон (Abby), Бен Мендельсон (Phil Beckman), Д.Г. Малоуни (The Stranger), Надя Таунсенд (Grace), Алан Хопгуд (Reverend Koestler), Эдриэнн Пикеринг (Allison), Джошуа Лонг (Younger Caleb), Даниэль Картер (Miss Taylor (1959)), Алетеа МакГрат (Miss Taylor (2009))
Описание:
После вскрытия «временной капсулы», в которую в 1959 группа школьников поместила рисунки со своим видением будущего, в руки к профессору Джону Кестлеру попадает загадочный лист, сверху до низу исписанный цифрами. В поисках расшифровки содержания листа, Кестлер устанавливает загадочную связь между цифрами и крупнейшими мировыми бедствиями, произошедшими на Земле за последние 50 лет. Если верить цифрам, трагедий не избежать и в будущем, только теперь Кестлер знает, когда их ожидать. Но есть ли возможность их предотвратить? И самое главное: что будет, когда цепочка цифр кончится?
Рейтинг:

MPAA: PG-13 - Детям до 13 лет просмотр не желателен
Качество: UHD BDRip 2160p
Формат: MKV
Видео: HEVC, HDR 11400 Мбит/с, 3840x1634, 23.976 Кадр/сс
Аудио 1: русский, AC3, 640 kbps, 6 ch, 48 kHz [дублированный]
Аудио 2: русский, AC3, 448 kbps, 6 ch, 48 kHz [профессиональный многоголосый, Киномания]
Аудио 3: русский, AC3, 448 kbps, 6 ch, 48 kHz [авторский, Андрей Гаврилов]
Аудио 4: русский, AC3, 448 kbps, 6 ch, 48 kHz [авторский, Юрий Сербин]
Аудио 5: украинский, AC3, 192 kbps, 2 ch, 48 kHz [дублированный]
Аудио 6: английский, AC3, 448 kbps, 6 ch, 48 kHz [оригинал]
Аудио 7: английский, Atmos / TrueHD, 4498 kbps, 8 ch, 48 kHz [оригинал]
Навигация по главам: есть
Общее
Уникальный идентификатор : 247485695114199836247321591729403772489 (0xBA3002D7A1F3AB41A33688A814CCBE49)
Полное имя : H:\Knowing.2009.2160p.UHD.BluRay.x265.10bit.HDR.Master5.mkv
Формат : Matroska
Версия формата : Version 4 / Version 2
Размер файла : 15,8 Гбайт
Продолжительность : 2 ч. 1 м.
Режим общего битрейта : Переменный
Общий поток : 18,6 Мбит/сек
Название фильма : Knowing.2009.2160p.UHD.BluRay.x265.10bit.HDR.Master5
Дата кодирования : UTC 2018-04-11 18:33:44
Программа кодирования : mkvmerge v8.1.0 ('Psychedelic Postcard') 32bit
Библиотека кодирования : libebml v1.3.1 + libmatroska v1.4.2

Видео
Идентификатор : 1
Формат : HEVC
Формат/Информация : High Efficiency Video Coding
Профиль формата : Main 10@L5.1@High
Идентификатор кодека : V_MPEGH/ISO/HEVC
Продолжительность : 2 ч. 1 м.
Битрейт : 11,4 Мбит/сек
Ширина : 3840 пикселей
Высота : 1634 пикселя
Соотношение сторон : 2,35:1
Режим частоты кадров : Постоянный
Частота кадров : 23,976 (24000/1001) кадра/сек
Цветовое пространство : YUV
Субдискретизация насыщенности : 4:2:0 (Type 2)
Битовая глубина : 10 бит
Бит/(Пиксели*Кадры) : 0.076
Размер потока : 9,68 Гбайт (61%)
Заголовок : Knowing.2009.2160p.UHD.BluRay.x265.10bit.HDR.Master5
Библиотека кодирования : x265 2.7+20-3440a56acc78:[Windows][GCC 6.3.0][64 bit] 10bit
Настройки программы : cpuid=1173503 / frame-threads=4 / numa-pools=16 / wpp / no-pmode / no-pme / no-psnr / no-ssim / log-level=2 / input-csp=1 / input-res=3840x1634 / interlace=0 / total-frames=174764 / level-idc=51 / high-tier=1 / uhd-bd=0 / ref=4 / no-allow-non-conformance / repeat-headers / annexb / aud / hrd / info / hash=0 / no-temporal-layers / no-open-gop / min-keyint=24 / keyint=240 / gop-lookahead=0 / bframes=4 / b-adapt=2 / b-pyramid / bframe-bias=0 / rc-lookahead=25 / lookahead-slices=4 / scenecut=40 / radl=0 / no-intra-refresh / ctu=64 / min-cu-size=8 / rect / no-amp / max-tu-size=32 / tu-inter-depth=1 / tu-intra-depth=1 / limit-tu=0 / rdoq-level=2 / dynamic-rd=0.00 / no-ssim-rd / signhide / no-tskip / nr-intra=0 / nr-inter=0 / no-constrained-intra / no-strong-intra-smoothing / max-merge=3 / limit-refs=3 / limit-modes / me=3 / subme=3 / merange=57 / temporal-mvp / weightp / no-weightb / no-analyze-src-pics / deblock=-3:-3 / no-sao / no-sao-non-deblock / rd=4 / no-early-skip / rskip / no-fast-intra / no-tskip-fast / no-cu-lossless / no-b-intra / no-splitrd-skip / rdpenalty=0 / psy-rd=2.00 / psy-rdoq=1.00 / no-rd-refine / no-lossless / cbqpoffs=0 / crqpoffs=0 / rc=crf / crf=17.0 / qcomp=0.60 / qpstep=4 / stats-write=0 / stats-read=0 / vbv-maxrate=160000 / vbv-bufsize=160000 / vbv-init=0.9 / crf-max=0.0 / crf-min=0.0 / ipratio=1.40 / pbratio=1.30 / aq-mode=1 / aq-strength=1.00 / cutree / zone-count=0 / no-strict-cbr / qg-size=32 / no-rc-grain / qpmax=69 / qpmin=0 / no-const-vbv / sar=1 / overscan=0 / videoformat=5 / range=0 / colorprim=9 / transfer=16 / colormatrix=9 / chromaloc=1 / chromaloc-top=2 / chromaloc-bottom=2 / display-window=0 / master-display=G(13250,34500)B(7500,3000)R(34000,16000)WP(15635,16450)L(10000000,50) / max-cll=1000,985 / min-luma=0 / max-luma=1023 / log2-max-poc-lsb=8 / vui-timing-info / vui-hrd-info / slices=1 / opt-qp-pps / opt-ref-list-length-pps / no-multi-pass-opt-rps / scenecut-bias=0.05 / no-opt-cu-delta-qp / no-aq-motion / hdr / hdr-opt / no-dhdr10-opt / no-idr-recovery-sei / analysis-reuse-level=5 / scale-factor=0 / refine-intra=0 / refine-inter=0 / refine-mv=0 / no-limit-sao / ctu-info=0 / no-lowpass-dct / refine-mv-type=0 / copy-pic=1 / max-ausize-factor=1.0 / no-dynamic-refine
Default : Да
Forced : Нет
Цветовой диапазон : Limited
Основные цвета : BT.2020
Характеристики трансфера : SMPTE ST 2084
Коэффициенты матрицы : BT.2020 non-constant
MasteringDisplay_ColorPrimaries : R: x=0.680000 y=0.320000, G: x=0.265000 y=0.690000, B: x=0.150000 y=0.060000, White point: x=0.312700 y=0.329000
MasteringDisplay_Luminance : min: 0.0050 cd/m2, max: 1000.0000 cd/m2
MaxCLL : 1000 cd/m2
MaxFALL : 985 cd/m2

Аудио #1
Идентификатор : 2
Формат : AC-3
Формат/Информация : Audio Coding 3
Расширение режима : CM (complete main)
Параметр Endianness формата : Big
Идентификатор кодека : A_AC3
Продолжительность : 2 ч. 1 м.
Вид битрейта : Постоянный
Битрейт : 640 Кбит/сек
Каналы : 6 каналов
Расположение каналов : Front: L C R, Side: L R, LFE
Частота : 48,0 КГц
Частота кадров : 31,250 кадров/сек (1536 spf)
Метод сжатия : С потерями
Размер потока : 556 Мбайт (3%)
Заголовок : Дубляж
Язык : Russian
Default : Нет
Forced : Нет

Аудио #2
Идентификатор : 3
Формат : AC-3
Формат/Информация : Audio Coding 3
Расширение режима : CM (complete main)
Параметр Endianness формата : Big
Идентификатор кодека : A_AC3
Продолжительность : 2 ч. 1 м.
Вид битрейта : Постоянный
Битрейт : 448 Кбит/сек
Каналы : 6 каналов
Расположение каналов : Front: L C R, Side: L R, LFE
Частота : 48,0 КГц
Частота кадров : 31,250 кадров/сек (1536 spf)
Метод сжатия : С потерями
Размер потока : 389 Мбайт (2%)
Заголовок : MVO (Киномания)
Язык : Russian
Default : Нет
Forced : Нет

Аудио #3
Идентификатор : 4
Формат : AC-3
Формат/Информация : Audio Coding 3
Расширение режима : CM (complete main)
Параметр Endianness формата : Big
Идентификатор кодека : A_AC3
Продолжительность : 2 ч. 1 м.
Вид битрейта : Постоянный
Битрейт : 448 Кбит/сек
Каналы : 6 каналов
Расположение каналов : Front: L C R, Side: L R, LFE
Частота : 48,0 КГц
Частота кадров : 31,250 кадров/сек (1536 spf)
Метод сжатия : С потерями
Размер потока : 389 Мбайт (2%)
Заголовок : AVO (Андрей Гаврилов)
Язык : Russian
Default : Нет
Forced : Нет

Аудио #4
Идентификатор : 5
Формат : AC-3
Формат/Информация : Audio Coding 3
Расширение режима : CM (complete main)
Параметр Endianness формата : Big
Идентификатор кодека : A_AC3
Продолжительность : 2 ч. 1 м.
Вид битрейта : Постоянный
Битрейт : 448 Кбит/сек
Каналы : 6 каналов
Расположение каналов : Front: L C R, Side: L R, LFE
Частота : 48,0 КГц
Частота кадров : 31,250 кадров/сек (1536 spf)
Метод сжатия : С потерями
Размер потока : 389 Мбайт (2%)
Заголовок : AVO (Юрий Сербин)
Язык : Russian
Default : Нет
Forced : Нет

Аудио #5
Идентификатор : 6
Формат : AC-3
Формат/Информация : Audio Coding 3
Расширение режима : CM (complete main)
Параметр Endianness формата : Big
Идентификатор кодека : A_AC3
Продолжительность : 2 ч. 1 м.
Вид битрейта : Постоянный
Битрейт : 192 Кбит/сек
Каналы : 2 канала
Расположение каналов : Front: L R
Частота : 48,0 КГц
Частота кадров : 31,250 кадров/сек (1536 spf)
Метод сжатия : С потерями
Размер потока : 167 Мбайт (1%)
Заголовок : Ukrainian
Язык : Ukrainian
Default : Нет
Forced : Нет

Аудио #6
Идентификатор : 7
Формат : AC-3
Формат/Информация : Audio Coding 3
Расширение режима : CM (complete main)
Параметр Endianness формата : Big
Идентификатор кодека : A_AC3
Продолжительность : 2 ч. 1 м.
Вид битрейта : Постоянный
Битрейт : 448 Кбит/сек
Каналы : 6 каналов
Расположение каналов : Front: L C R, Side: L R, LFE
Частота : 48,0 КГц
Частота кадров : 31,250 кадров/сек (1536 spf)
Метод сжатия : С потерями
Размер потока : 389 Мбайт (2%)
Заголовок : Original
Язык : English
Default : Нет
Forced : Нет

Аудио #7
Идентификатор : 8
Формат : Atmos / TrueHD
Идентификатор кодека : A_TRUEHD
Продолжительность : 2 ч. 1 м.
Вид битрейта : Переменный
Битрейт : 4498 Кбит/сек
Максимальный битрейт : 8085 Кбит/сек
Каналы : Object Based / 8 каналов
Расположение каналов : Object Based / Front: L C R, Side: L R, Back: L R, LFE
Частота : / 48,0 КГц
Частота кадров : 1200,000 кадров/сек (40 spf)
Метод сжатия : Без потерь
Размер потока : 3,82 Гбайт (24%)
Заголовок : Atmos 7.1
Язык : English
Default : Да
Forced : Нет

Текст #1
Идентификатор : 9
Формат : UTF-8
Идентификатор кодека : S_TEXT/UTF8
Идентификатор кодека/Информация : UTF-8 Plain Text
Продолжительность : 1 ч. 52 м.
Битрейт : 77 бит/сек
Count of elements : 1508
Размер потока : 64,0 Кбайт (0%)
Заголовок : русский
Язык : Russian
Default : Нет
Forced : Нет

Текст #2
Идентификатор : 10
Формат : UTF-8
Идентификатор кодека : S_TEXT/UTF8
Идентификатор кодека/Информация : UTF-8 Plain Text
Продолжительность : 1 ч. 52 м.
Битрейт : 47 бит/сек
Count of elements : 1080
Размер потока : 39,1 Кбайт (0%)
Заголовок : английский
Default : Нет
Forced : Нет

Меню
00:00:00.000 : en:00:00:00.000
00:08:35.098 : en:00:08:35.098
00:15:20.211 : en:00:15:20.211
00:20:28.144 : en:00:20:28.144
00:29:06.828 : en:00:29:06.828
00:36:52.752 : en:00:36:52.752
00:43:17.011 : en:00:43:17.011
00:49:04.525 : en:00:49:04.525
00:56:09.741 : en:00:56:09.741
01:02:31.039 : en:01:02:31.039
01:08:11.546 : en:01:08:11.546
01:16:17.323 : en:01:16:17.323
01:22:58.098 : en:01:22:58.098
01:30:14.701 : en:01:30:14.701
01:39:33.509 : en:01:39:33.509
01:50:31.166 : en:01:50:31.166



Скачать Знамение через торрент http://i104.fastpic.ru/big/2018/0411/52/247ac6e4aafcceecce4063c35a5f5952.jpg Скачать, смотреть онлайн Знамение бесплантно в хорошем качестве Описание: После вскрытия «временной капсулы», в которую в 1959 группа школьников поместила рисунки со своим видением будущего, в руки к ... 9.6 10 5
Info! Золотая раздача, скачанное не засчитывается.
Торрент: Зарегистрирован [2018-04-12 02:20] · скачан: 22 раз
Статус: √ проверено
Размер: 15.79 GB
Как cкачать? Как скачать Знамение через торрент | UTorrent

% Раздел Тема Автор DL S | L
Фильмы [HD 720p, 1080p] (Хороший звук DUB, MVO) [ 6.86 GB ] Знамение / Knowing | DUB + MVO + 2xAVO - KORSAR | 720p GoldDust Скачать
1 | 0
Ultra HD (UHD: 2K, 4K, 8K) [ 65.41 GB ] Знамение / Knowing | DUB + MVO + 2xAVO | 2160p sheker187 Скачать
1 | 0
Ultra HD (UHD: 2K, 4K, 8K) [ 64.2 GB ] Знамение / Knowing | DUB | 2160p sheker187 Скачать
1 | 0
Ultra HD (UHD: 2K, 4K, 8K) [ 52.04 GB ] Знамение / Knowing | DUB + MVO + 2xAVO | 2160p sheker187 Скачать
1 | 0

28-11-2019 20:33  


Отключить вcю реклaмy на сайте, в т.ч. и в плеере онлайн просмотра!

12-04-2018 12:43 Знамение Скачать торрент  

Конец света - теперь в 4К!



12-04-2018 12:44 Знамение Скачать торрент  

А мне интересно - замутил уже кто-нибудь 6000 без напряга? )))



    Дорогой пользователь! Огромная просьба, поблагодарите релизера, оцените раздачу и оставьте свои комментарий, если Вы скачали Знамение через торрент бесплатно!!
    Комментировать посты могут только пользователи прошедшие не сложную регистрацию
    Показать сообщения:    


    Знамение через торрент
    Скачать бесплатно Знамение
    Знамение скачать торрент
    Знамение смотреть онлайн
    Cкачать фильм Знамение бесплатно
    Знамение скачать торрент в хорошем качестве
    Знамение смотреть онлайн бесплатно в хорошем качестве
    Вы не можете начинать темы
    Вы не можете отвечать на сообщения
    Вы не можете редактировать свои сообщения
    Вы не можете удалять свои сообщения
    Вы не можете голосовать в опросах
    Вы не можете прикреплять файлы к сообщениям
    Вы можете скачивать файлы
    Знамение / Knowing [2009, фантастика, триллер, драма, UHD BDRip 2160p] Дубляж + MVO + 2xAVO смотреть онлайн, скачать торрент picoco.icu