Лицензия

MVO

1

1 сезон

Лицензия

Лицензия

13

MVO

1 сезон

Deluxe Edition

pack

Рекомендуем

30

Repack

ВАЖНО

ВАЖНО

Ghostwire

RePack

jed

RePack

fifa19

RePack

RDR2

RePack

NEED FOR SPEED™ PAYBACK

RePack

Кинопоиск HD

 Острые козырьки 6 сезон

6 сезон

FAR CRY 6

RePack

Лицензия

MVO

1

1 сезон

1 сезон

Лицензия

  

Спасите наши души (Алексей Мишурин) [1960, СССР, мелодрама, приключения, SATRip от AVP Studio]

Спасите наши души через торрент piratbit.org

Размер: 1.09 GB | Добавлен: 4 года 5 мес. назад | Торрент скачан:16 раз
Смотреть онлайн Спасите наши души | Скачать   

16-04-2018 06:51 Спасите наши души Скачать торрент  

Спасите наши души
Страна: СССР
Производство: К/ст им. Довженко

Жанр: мелодрама, приключения
Год выпуска: 1960
Продолжительность: 01:13:49

Перевод: Не требуется
Cубтитры: нет
Оригинальная аудиодорожка: русский

Режиссер: Алексей Мишурин

В ролях:
Александр Белявский, Лидия Федосеева-Шукшина, Виктор Добровольский, Михаил Орлов, Николай Яковченко, Валерий Рудой, Наталья Малявина, Сергей Петров, Сергей Мартинсон, Юрий Прокопович, Александр Гумбург, Борис Хенкин, Наталья Наум, Александр Ануров...
Об актёрах подробней

Описание:
Судно «Запорожец» отплывает в очередной заграничный рейс. Когда судно уже находилось в открытом океане, радистка Леся Гордиенко (Лидия Федосеева) приняла радиограмму СОС с яхты, на которой была дочь английского судопромышленника Элис Мейсфилд со своим женихом Майклом Пейтоном. Отобрав у Элис спасательный пояс, Майкл бросился в воду, оставив Элис на горящей яхте. Тонущую Элис спасает Юрий Цымбалюк (Александр Белявский), курсант мореходного училища.

Исходник: DVB
Качество видео: SATRip
Формат видео: AVI

Видео: 704x512 (1,375:1), 25,000 кадров/сек, XviD ~ 1912 kbps avg, 0.157 bit/pixel
Аудио: 48 kHz, Dolby Digital AC3 2.0, 192 kbps

Раздача от:
Общее
Полное имя : Spasite.nashi.dushi.1960.SATRip_[New-team]_by_AVP_Studio.avi
Формат : AVI
Формат/Информация : Audio Video Interleave
Размер файла : 1,09 Гбайт
Продолжительность : 1 ч. 13 м.
Общий поток : 2114 Кбит/сек
Программа кодирования : VirtualDubMod 1.5.10.3 | www.virtualdub-fr.org || (build 2550/release)
Библиотека кодирования : VirtualDubMod build 2550/release

Видео
Идентификатор : 0
Формат : MPEG-4 Visual
Профиль формата : Advanced Simple@L5
Настройки формата : BVOP1 / Custom Matrix
Параметр BVOP формата : 1
Параметр QPel формата : Нет
Параметр GMC формата : Без точки перехода
Параметр матрицы формата : Выборочная
Идентификатор кодека : XVID
Идентификатор кодека/Подсказка : XviD
Продолжительность : 1 ч. 13 м.
Битрейт : 1912 Кбит/сек
Ширина : 704 пикселя
Высота : 512 пикселей
Соотношение сторон : 1,375
Частота кадров : 25,000 кадров/сек
Цветовое пространство : YUV
Субдискретизация насыщенности : 4:2:0
Битовая глубина : 8 бит
Тип развёртки : Прогрессивная
Метод сжатия : С потерями
Бит/(Пиксели*Кадры) : 0.212
Размер потока : 1009 Мбайт (90%)
Библиотека кодирования : XviD 73

Аудио
Идентификатор : 1
Формат : AC-3
Формат/Информация : Audio Coding 3
Идентификатор кодека : 2000
Продолжительность : 1 ч. 13 м.
Вид битрейта : Постоянный
Битрейт : 192 Кбит/сек
Каналы : 2 канала
Расположение каналов : Front: L R
Частота : 48,0 КГц
Частота кадров : 31,250 кадров/сек (1536 SPF)
Битовая глубина : 16 бит
Метод сжатия : С потерями
Размер потока : 101 Мбайт (9%)
Выравнивание : Разделение по промежуткам
Продолжительность промежутка : 40 мс. (1,00 видеокадр)
Время предзагрузки промежутка : 500 мс



Скачать Спасите наши души через торрент http://i5-imageban-ru.translate.goog/out/2018/04/13/ed293f2d58d502139983a12feea3d03b.png Скачать, смотреть онлайн Спасите наши души бесплантно в хорошем качестве Описание:Судно «Запорожец» отплывает в очередной заграничный рейс. Когда судно уже находилось в открытом океане, радистка Леся Гордиенко ... 5 10 1
Info! Золотая раздача, скачанное не засчитывается.
Торрент: Зарегистрирован [2018-04-16 06:51] · скачан: 16 раз
Статус: √ проверено
Размер: 1.09 GB
Как cкачать? Как скачать Спасите наши души через торрент | UTorrent

% Раздел Тема Автор DL S | L
Кино СССР [ 1.09 GB ] Спасите наши души | | SATRip-AVC от AVP Studio AVP Studio Скачать
1 | 0

28-11-2019 20:33  

Отключить вcю реклaмy на сайте

    Дорогой пользователь! Огромная просьба, поблагодарите релизера, оцените раздачу и оставьте свои комментарий, если Вы скачали Спасите наши души через торрент бесплатно!!
    Комментировать посты могут только пользователи прошедшие не сложную регистрацию
    Показать сообщения:    


    Спасите наши души через торрент
    Скачать бесплатно Спасите наши души
    Спасите наши души скачать торрент
    Спасите наши души смотреть онлайн
    Cкачать фильм Спасите наши души бесплатно
    Спасите наши души скачать торрент в хорошем качестве
    Спасите наши души смотреть онлайн бесплатно в хорошем качестве
    Вы не можете начинать темы
    Вы не можете отвечать на сообщения
    Вы не можете редактировать свои сообщения
    Вы не можете удалять свои сообщения
    Вы не можете голосовать в опросах
    Вы не можете прикреплять файлы к сообщениям
    Вы можете скачивать файлы