1 сезон

3 сезон

iTunes

1

iTunes

DUB Netflix

iTunes

13

1 сезон

RePack

30

Deluxe

pack

Легкие деньги

ВАЖНО

ИГРА 18+

pack

RePack

MK11

RePack

jed

RePack

fifa19

RePack

RDR2

RePack

NEED FOR SPEED™ PAYBACK

4 сезон

9 сезон

Бесстыжие 9 сезон

Все сериалы

все сериалы на PB.wtf

RePack

FAR CRY 5

Anonymous, добрый день, мы не успеваем до 1 числа собрать деньги на оплату серверов, помогите нам пожалуйста в это трудное время. В качестве благодарности мы отключим Вам всю рекламу на сайте (укажите свой ник в строку Ваше имя)!

×
  
Magnet ссылка

Полицейский с Рублёвки: Снова дома / Сезон: 3 / Серии: 1-8 из 8 (Илья Куликов) [2018, Драма, комедия, SATRip-AVC] piratbit.org

Полицейский с Рублёвки: Снова дома через торрент piratbit.org

Размер: 4.97 GB | Добавлен: 3 года 1 мес. назад | Торрент скачан:214 раз
Скачать  

16-04-2018 16:35 Полицейский с Рублёвки: Снова дома Скачать торрент  

Полицейский с Рублёвки: Снова домаГод выпуска: 2018
Страна: Россия
Жанр: Драма, комедия
Продолжительность: ~ 00:50:00
Субтитры: отсутствуют

Режиссер: Илья Куликов

rating

В ролях:

Александр Петров (II), Сергей Бурунов, Роман Попов, Георгий Клинаев, Ирина Вилкова, Татьяна Бабенкова, Софья Каштанова, Ростислав Гулбис, Сергей Штатнов, Александра Бортич, Александр Дерепко, Светлана Суханова, Мария Безродная, Анна Котова, Велимир Русаков, Константин Быков

Описание:

В третьей части сериала Гриша Измайлов с триумфом возвращается на Рублёвку в новой должности начальника родного отдела. Его радость разделяют все вернувшиеся домой коллеги. Все, кроме одного: бывший начальник Яковлев теперь всего лишь глава оперов. И готов на всё, лишь бы вернуть себе Влacть и сбросить гнёт ненавистного Измайлова.

Качество: SATRip-AVC
Формат: MKV

Видео: MPEG-4 AVC, ~ 1500 Кбит/с, 720x320, 25 кадр/с
Аудио#1: AC3, 2 ch, 192 Кбит/с
скриншот   скриншот   скриншот   скриншот  

Общее
Уникальный идентификатор : 195171305840054035972194902497379730313 (0x92D4A04FF86E347EBD5251E45FB7C389)
Полное имя : D:\Policejskij s rubliovki.s03.(2018).SATRip.(AVC).Files-x\01.Policejskij.s.rubliovki.s03.(2018).SATRip.(AVC).by.Серый1779.Files-x.mkv
Формат : Matroska
Версия формата : Version 2
Размер файла : 585 Мбайт
Продолжительность : 48 м. 20 с.
Общий поток : 1693 Кбит/сек
Дата кодирования : UTC 2018-04-16 14:22:28
Программа кодирования : mkvmerge v7.8.0 ('River Man') 32bit built on Apr 3 2015 12:11:22
Библиотека кодирования : libebml v1.3.1 + libmatroska v1.4.2

Видео
Идентификатор : 1
Формат : AVC
Формат/Информация : Advanced Video Codec
Профиль формата : High@L4.1
Параметр CABAC формата : Да
Параметр RefFrames формата : 9 кадров
Идентификатор кодека : V_MPEG4/ISO/AVC
Продолжительность : 48 м. 20 с.
Битрейт : 1500 Кбит/сек
Ширина : 720 пикселей
Высота : 320 пикселей
Соотношение сторон : 2,25:1
Режим частоты кадров : Постоянный
Частота кадров : 25,000 кадров/сек
Цветовое пространство : YUV
Субдискретизация насыщенности : 4:2:0
Битовая глубина : 8 бит
Тип развёртки : Прогрессивная
Бит/(Пиксели*Кадры) : 0.260
Размер потока : 507 Мбайт (87%)
Библиотека кодирования : x264 core 146 r2538 121396c
Настройки программы : cabac=1 / ref=9 / deblock=1:-3:-3 / analyse=0x3:0x133 / me=umh / subme=9 / psy=1 / psy_rd=1.00:0.15 / mixed_ref=1 / me_range=32 / chroma_me=1 / trellis=2 / 8x8dct=1 / cqm=0 / deadzone=21,11 / fast_pskip=0 / chroma_qp_offset=-3 / threads=18 / lookahead_threads=2 / sliced_threads=0 / nr=0 / decimate=1 / interlaced=0 / bluray_compat=0 / constrained_intra=0 / bframes=9 / b_pyramid=2 / b_adapt=2 / b_bias=0 / direct=1 / weightb=1 / open_gop=0 / weightp=2 / keyint=250 / keyint_min=25 / scenecut=40 / intra_refresh=0 / rc=2pass / mbtree=0 / bitrate=1500 / ratetol=1.0 / qcomp=0.60 / qpmin=0 / qpmax=69 / qpstep=4 / cplxblur=20.0 / qblur=0.5 / ip_ratio=1.40 / pb_ratio=1.30 / aq=2:1.00
Default : Да
Forced : Нет
Цветовой диапазон : Limited
Основные цвета : BT.601 PAL
Характеристики трансфера : BT.470 System B, BT.470 System G
Коэффициенты матрицы : BT.601

Аудио
Идентификатор : 2
Формат : AC-3
Формат/Информация : Audio Coding 3
Расширение режима : CM (complete main)
Параметр Endianness формата : Big
Идентификатор кодека : A_AC3
Продолжительность : 48 м. 20 с.
Вид битрейта : Постоянный
Битрейт : 192 Кбит/сек
Каналы : 2 канала
Расположение каналов : Front: L R
Частота : 44,1 КГц
Частота кадров : 28,711 кадров/сек (1536 spf)
Метод сжатия : С потерями
Размер потока : 66,4 Мбайт (11%)
Default : Да
Forced : Нет

Внимание! Раздача ведётся путём добавления новых серий; при каждом добавлении создаётся новый торрент.
Чтобы начать докачку новой серии, пользователям необходимо сделать следующее:
1. Остановить скачивание;
2. Удалить старый торрент у себя из клиента (старые серии удалять не надо);
3. Скачать новый торрент и запустить его у себя в клиенте вместо старого, при этом указать клиенту путь в старую папку куда и должно происходить скачивание новых серий. Ваш клиент при этом должен произвести хеширование (проверку) старой папки и будет докачивать только те серии, которых у вас ещё нет. Старые серии при этом не удаляются, а продолжают раздаваться! Eсли вы уже удалили старые серии, то предотвратить повторную закачку старых серий можно, отжав галочку в соответствующих местах при запуске нового торрента.
piratbit.org



Скачать Полицейский с Рублёвки: Снова дома через торрент http://i104.fastpic.ru/big/2018/0416/f2/124ea762724ccb359a86b848f161b4f2.jpg Скачать фильм Полицейский с Рублёвки: Снова дома через торрент бесплантно в хорошем качестве Описание: В третьей части сериала Гриша Измайлов с триумфом возвращается на Рублёвку в новой должности начальника родного отдела. Его ... 9.5 10 39
Info! Золотая раздача, скачанное не засчитывается.
Торрент: Зарегистрирован [2018-04-26 17:47] · скачан: 214 раз
Статус: √ проверено
Размер: 4.97 GB
Как cкачать? Как скачать Полицейский с Рублёвки: Снова дома через торрент | UTorrent

% Раздел Тема Автор DL S | L
TNT serials [ 10.96 GB ] Полицейский с Рублёвки: Снова дома / Сезон: 3 / Серии: 1-8 из 8 [2018 WEB-DL 720p] bober100 Скачать
2 | 0
TNT serials [ 24.2 GB ] Полицейский с Рублёвки: Снова дома / Сезон: 3 / Серии: 1-8 из 8 [2018 HDTV 1080i] bober100 Скачать
1 | 0
TNT serials [ 6.36 GB ] Полицейский с Рублёвки: Снова дома / Сезон: 3 / Серии: 1-8 из 8 [2018 WEB-DLRip-AVC] bober100 Скачать
1 | 0
TNT serials [ 12.34 GB ] Полицейский с Рублёвки: Снова дома / Сезон: 3 / Серии: 1-8 из 8 [2018 HDTVRip 720p] bober100 Скачать
1 | 0
TNT serials [ 6.45 GB ] Полицейский с Рублёвки: Снова дома / Сезон: 3 / Серии: 1-8 из 8 [2018 HDTVRip-AVC] bober100 Скачать
1 | 0
TNT serials [ 4.36 GB ] Полицейский с Рублёвки: Снова дома / Сезон: 3 / Серии: 1-8 из 8 [2018 HDTVRip] bober100 Скачать
2 | 0
TNT serials [ 5.07 GB ] Полицейский с Рублёвки: Снова дома / Сезон: 3 / Серии: 1-8 из 8 [2018 WEBRip] bober100 Скачать
1 | 0


Последний раз редактировалось: bober100 (2018-04-26 17:47), всего редактировалось 3 раз(а)

28-11-2019 20:33  

Отключить всю рекламу на сайте

21-04-2018 12:39 Полицейский с Рублёвки: Снова дома Скачать торрент  

3-я серия - это, , Шедевр!
Выражаю благодарность Бобру! piratbit.org



    Дорогой пользователь! Огромная просьба, поблагодарите релизера, оцените раздачу и оставьте свои комментарий, если Вы скачали Полицейский с Рублёвки: Снова дома через торрент бесплатно! Внесите свою лепту в развитие PiratBit!
    Комментировать посты могут только пользователи прошедшие не сложную регистрацию
    Показать сообщения:    

    Полицейский с Рублёвки: Снова дома через торрент
    Скачать бесплатно Полицейский с Рублёвки: Снова дома
    Полицейский с Рублёвки: Снова дома скачать торрент
    Полицейский с Рублёвки: Снова дома смотреть онлайн
    Cкачать фильм Полицейский с Рублёвки: Снова дома бесплатно
    Полицейский с Рублёвки: Снова дома скачать торрент в хорошем качестве
    Полицейский с Рублёвки: Снова дома смотреть онлайн бесплатно в хорошем качестве


    Вы не можете начинать темы
    Вы не можете отвечать на сообщения
    Вы не можете редактировать свои сообщения
    Вы не можете удалять свои сообщения
    Вы не можете голосовать в опросах
    Вы не можете прикреплять файлы к сообщениям
    Вы можете скачивать файлы