1 сезон

3 сезон

iTunes

1

iTunes

DUB Netflix

iTunes

13

1 сезон

RePack

30

Deluxe

pack

Легкие деньги

ВАЖНО

ИГРА 18+

pack

RePack

MK11

RePack

jed

RePack

fifa19

RePack

RDR2

RePack

NEED FOR SPEED™ PAYBACK

4 сезон

9 сезон

Бесстыжие 9 сезон

Все сериалы

все сериалы на PB.wtf

RePack

FAR CRY 5

Anonymous, добрый день, мы не успеваем до 1 числа собрать деньги на оплату серверов, помогите нам пожалуйста в это трудное время. В качестве благодарности мы отключим Вам всю рекламу на сайте (укажите свой ник в строку Ваше имя)!

×
  
Magnet ссылка

Полицейский с Рублёвки: Снова дома / Сезон: 3 / Серии: 1-8 из 8 (Илья Куликов) [2018, Драма, комедия, HDTVRip] piratbit.org

Полицейский с Рублёвки: Снова дома через торрент piratbit.org

Размер: 4.36 GB | Добавлен: 3 года 1 мес. назад | Торрент скачан:2219 раз
Скачать  

16-04-2018 21:17 Полицейский с Рублёвки: Снова дома Скачать торрент  

Полицейский с Рублёвки: Снова дома
Год выпуска: 2018
Страна: Россия
Жанр: Драма, комедия
Продолжительность: ~ 00:50:00
Субтитры: отсутствуют

Режиссер: Илья Куликов

rating

В ролях:

Александр Петров (II), Сергей Бурунов, Роман Попов, Георгий Клинаев, Ирина Вилкова, Татьяна Бабенкова, Софья Каштанова, Ростислав Гулбис, Сергей Штатнов, Александра Бортич, Александр Дерепко, Светлана Суханова, Мария Безродная, Анна Котова, Велимир Русаков, Константин Быков

Описание:

В третьей части сериала Гриша Измайлов с триумфом возвращается на Рублёвку в новой должности начальника родного отдела. Его радость разделяют все вернувшиеся домой коллеги. Все, кроме одного: бывший начальник Яковлев теперь всего лишь глава оперов. И готов на всё, лишь бы вернуть себе Влacть и сбросить гнёт ненавистного Измайлова.

Качество: HDTVRip
Формат: AVI

Видео: XviD build 73, 720x336 (2.143), 25.000 fps, ~ 1460 Kbps (~ 0.242 bit/pixel)
Аудио: 48.0 kHz, MP3, 2/0 ch, 128 kbps
скриншот   скриншот   скриншот   скриншот   скриншот   скриншот  

Общее
Полное имя : D:\Policejskij.S.Rublevki.s03.2018.XviD.HDTVRip.GeneralFilm\Policejskij.S.Rublevki.s03.e01.avi
Формат : AVI
Формат/Информация : Audio Video Interleave
Размер файла : 557 Мбайт
Продолжительность : 48 м. 35 с.
Общий поток : 1602 Кбит/сек
Программа кодирования : VirtualDubMod 1.5.10.3 | www.virtualdub-fr.org || (build 2550/release)
Библиотека кодирования : VirtualDubMod build 2550/release

Видео
Идентификатор : 0
Формат : MPEG-4 Visual
Профиль формата : Advanced Simple@L5
Параметр BVOP формата : 1
Параметр QPel формата : Нет
Параметр GMC формата : Без точки перехода
Параметр матрицы формата : Default (H.263)
Идентификатор кодека : XVID
Идентификатор кодека/Подсказка : XviD
Продолжительность : 48 м. 35 с.
Битрейт : 1460 Кбит/сек
Ширина : 720 пикселей
Высота : 336 пикселей
Соотношение сторон : 2,143
Частота кадров : 25,000 кадров/сек
Цветовое пространство : YUV
Субдискретизация насыщенности : 4:2:0
Битовая глубина : 8 бит
Тип развёртки : Прогрессивная
Метод сжатия : С потерями
Бит/(Пиксели*Кадры) : 0.232
Размер потока : 487 Мбайт (87%)
Библиотека кодирования : XviD 73

Аудио
Идентификатор : 1
Формат : MPEG Audio
Версия формата : Version 1
Профиль формата : Layer 3
Идентификатор кодека : 55
Идентификатор кодека/Подсказка : MP3
Продолжительность : 48 м. 35 с.
Вид битрейта : Постоянный
Битрейт : 128 Кбит/сек
Каналы : 2 канала
Частота : 48,0 КГц
Метод сжатия : С потерями
Размер потока : 44,5 Мбайт (8%)
Выравнивание : Соединение по промежуткам
Библиотека кодирования : LAME3.99r
Настройки программы : -m s -V 4 -q 0 -lowpass 17 -b 128

Внимание! Раздача ведётся путём добавления новых серий; при каждом добавлении создаётся новый торрент.
Чтобы начать докачку новой серии, пользователям необходимо сделать следующее:
1. Остановить скачивание;
2. Удалить старый торрент у себя из клиента (старые серии удалять не надо);
3. Скачать новый торрент и запустить его у себя в клиенте вместо старого, при этом указать клиенту путь в старую папку куда и должно происходить скачивание новых серий. Ваш клиент при этом должен произвести хеширование (проверку) старой папки и будет докачивать только те серии, которых у вас ещё нет. Старые серии при этом не удаляются, а продолжают раздаваться! Eсли вы уже удалили старые серии, то предотвратить повторную закачку старых серий можно, отжав галочку в соответствующих местах при запуске нового торрента.
piratbit.org



Скачать Полицейский с Рублёвки: Снова дома через торрент https://pic1.kartinco.top/images/11/etc1f.jpg Скачать фильм Полицейский с Рублёвки: Снова дома через торрент бесплантно в хорошем качестве Описание: В третьей части сериала Гриша Измайлов с триумфом возвращается на Рублёвку в новой должности начальника родного отдела. Его ... 9.4 10 62
Info! Золотая раздача, скачанное не засчитывается.
Торрент: Зарегистрирован [2018-04-26 21:35] · скачан: 2 219 раз
Статус: √ проверено
Размер: 4.36 GB
Как cкачать? Как скачать Полицейский с Рублёвки: Снова дома через торрент | UTorrent

% Раздел Тема Автор DL S | L
TNT serials [ 10.96 GB ] Полицейский с Рублёвки: Снова дома / Сезон: 3 / Серии: 1-8 из 8 [2018 WEB-DL 720p] bober100 Скачать
2 | 0
TNT serials [ 24.2 GB ] Полицейский с Рублёвки: Снова дома / Сезон: 3 / Серии: 1-8 из 8 [2018 HDTV 1080i] bober100 Скачать
1 | 0
TNT serials [ 6.36 GB ] Полицейский с Рублёвки: Снова дома / Сезон: 3 / Серии: 1-8 из 8 [2018 WEB-DLRip-AVC] bober100 Скачать
1 | 0
TNT serials [ 12.34 GB ] Полицейский с Рублёвки: Снова дома / Сезон: 3 / Серии: 1-8 из 8 [2018 HDTVRip 720p] bober100 Скачать
1 | 0
TNT serials [ 6.45 GB ] Полицейский с Рублёвки: Снова дома / Сезон: 3 / Серии: 1-8 из 8 [2018 HDTVRip-AVC] bober100 Скачать
1 | 0
TNT serials [ 4.97 GB ] Полицейский с Рублёвки: Снова дома / Сезон: 3 / Серии: 1-8 из 8 [2018 SATRip-AVC] bober100 Скачать
1 | 0
TNT serials [ 5.07 GB ] Полицейский с Рублёвки: Снова дома / Сезон: 3 / Серии: 1-8 из 8 [2018 WEBRip] bober100 Скачать
1 | 0


Последний раз редактировалось: bober100 (2018-04-26 21:35), всего редактировалось 3 раз(а)

28-11-2019 20:33  

Отключить всю рекламу на сайте

20-04-2018 12:44 Полицейский с Рублёвки: Снова дома Скачать торрент  

Спасибоpiratbit.org



20-04-2018 17:25 Полицейский с Рублёвки: Снова дома Скачать торрент  

на телеке все после 1-й серии с затыкамиpiratbit.org



23-04-2018 13:59 Полицейский с Рублёвки: Снова дома Скачать торрент  

Спасибо!piratbit.org



27-04-2018 02:13 Полицейский с Рублёвки: Снова дома Скачать торрент  

Пятая серия обрывается на самом интересном месте!piratbit.org



    Дорогой пользователь! Огромная просьба, поблагодарите релизера, оцените раздачу и оставьте свои комментарий, если Вы скачали Полицейский с Рублёвки: Снова дома через торрент бесплатно! Внесите свою лепту в развитие PiratBit!
    Комментировать посты могут только пользователи прошедшие не сложную регистрацию
    Показать сообщения:    

    Полицейский с Рублёвки: Снова дома через торрент
    Скачать бесплатно Полицейский с Рублёвки: Снова дома
    Полицейский с Рублёвки: Снова дома скачать торрент
    Полицейский с Рублёвки: Снова дома смотреть онлайн
    Cкачать фильм Полицейский с Рублёвки: Снова дома бесплатно
    Полицейский с Рублёвки: Снова дома скачать торрент в хорошем качестве
    Полицейский с Рублёвки: Снова дома смотреть онлайн бесплатно в хорошем качестве


    Вы не можете начинать темы
    Вы не можете отвечать на сообщения
    Вы не можете редактировать свои сообщения
    Вы не можете удалять свои сообщения
    Вы не можете голосовать в опросах
    Вы не можете прикреплять файлы к сообщениям
    Вы можете скачивать файлы