1 сезон

3 сезон

iTunes

1

iTunes

DUB Netflix

iTunes

13

1 сезон

RePack

30

Deluxe

pack

Легкие деньги

ВАЖНО

ИГРА 18+

pack

RePack

MK11

RePack

jed

RePack

fifa19

RePack

RDR2

RePack

NEED FOR SPEED™ PAYBACK

4 сезон

9 сезон

Бесстыжие 9 сезон

Все сериалы

все сериалы на PB.wtf

RePack

FAR CRY 5

Anonymous, доброй ночи, мы не успеваем до 1 числа собрать деньги на оплату серверов, помогите нам пожалуйста в это трудное время. В качестве благодарности мы отключим Вам всю рекламу на сайте (укажите свой ник в строку Ваше имя)!

×
  
Magnet ссылка

Улица / Сезон: 2 / Серии: 1-34 из 34 (Жанна Кадникова, Николай Бурлак, Михаил Соловьёв) [2018, Драма, комедия, мелодрама, триллер, SATRip] piratbit.org

Улица через торрент piratbit.org

Размер: 9.76 GB | Добавлен: 3 года назад | Торрент скачан:62 раза
Скачать  

18-04-2018 08:11 Улица Скачать торрент  

УлицаГод выпуска: 2018
Страна: Россия
Жанр: Драма, комедия, мелодрама, триллер
Продолжительность: ~ 00:24:00
Субтитры: отсутствуют

Режиссер: Жанна Кадникова, Николай Бурлак, Михаил Соловьёв



В ролях:

Егор Клинаев, Ольга (Лёля) Баранова, Владимир Хацкевич, Екатерина Седик, Павел Савинков, Сергей Змичеревский, Артемий Падалка, Марина Богатова, Ксения Жданова, Марта Дромашко, Александр Терехов

Описание:

«Улица» — это история жителей одной из улиц спального района большого города. Школьники и студенты, домохозяйки и продавцы, олигархи и простые рабочие — здесь встретятся более 30 персонажей разного возраста и социального статуса, у каждого из них своя история. В большой Вселенной «Улицы» нет главных и второстепенных героев, здесь есть бурная жизнь с ее радостями, горестями, казусами и косяками, страхами, любовными переживаниями и трагедиями. Это история про всех нас и наших соседей.

Качество: SATRip
Формат: AVI

Видео: XviD, ~ 1600 Кбит/с, 720x400
Аудио: AC3, 2 ch, 192 Кбит/с
скриншот   скриншот   скриншот   скриншот  

Общее
Полное имя : E:\Ulica.2.2018.SATRip.Files-x\01.Ulica.2.2018.SATRip.Files-x.avi
Формат : AVI
Формат/Информация : Audio Video Interleave
Размер файла : 301 Мбайт
Продолжительность : 23 м. 6 с.
Общий поток : 1819 Кбит/сек
Программа кодирования : VirtualDubMod 1.5.10.2 (build 2542/release)
Библиотека кодирования : VirtualDubMod build 2542/release

Видео
Идентификатор : 0
Формат : MPEG-4 Visual
Профиль формата : Advanced Simple@L5
Настройки формата : BVOP1 / Custom Matrix
Параметр BVOP формата : 1
Параметр QPel формата : Нет
Параметр GMC формата : Без точки перехода
Параметр матрицы формата : Выборочная
Идентификатор кодека : XVID
Идентификатор кодека/Подсказка : XviD
Продолжительность : 23 м. 6 с.
Битрейт : 1617 Кбит/сек
Ширина : 720 пикселей
Высота : 400 пикселей
Соотношение сторон : 16:9
Частота кадров : 25,000 кадров/сек
Цветовое пространство : YUV
Субдискретизация насыщенности : 4:2:0
Битовая глубина : 8 бит
Тип развёртки : Прогрессивная
Метод сжатия : С потерями
Бит/(Пиксели*Кадры) : 0.225
Размер потока : 267 Мбайт (89%)
Библиотека кодирования : XviD 73

Аудио
Идентификатор : 1
Формат : AC-3
Формат/Информация : Audio Coding 3
Идентификатор кодека : 2000
Продолжительность : 23 м. 6 с.
Вид битрейта : Постоянный
Битрейт : 192 Кбит/сек
Каналы : 2 канала
Расположение каналов : Front: L R
Частота : 48,0 КГц
Частота кадров : 31,250 кадров/сек (1536 SPF)
Битовая глубина : 16 бит
Метод сжатия : С потерями
Размер потока : 31,7 Мбайт (11%)
Выравнивание : Разделение по промежуткам
Продолжительность промежутка : 40 мс. (1,00 видеокадр)
Время предзагрузки промежутка : 500 мс.
ServiceKind/String : Complete Main

Внимание! Раздача ведётся путём добавления новых серий; при каждом добавлении создаётся новый торрент. Чтобы начать докачку новой серии, пользователям необходимо сделать следующее:
(1) остановить скачивание,
(2) удалить старый торрент у себя из клиента (старые серии удалять не надо),
(3) скачать новый торрент и запустить его у себя в клиенте вместо старого, при этом указать клиенту путь в старую папку куда и должно происходить скачивание новых серий.

Ваш клиент при этом должен произвести хеширование (проверку) старой папки (если не производит сам - помогите ему сделать это), и будет докачивать только те серии которых у вас ещё нет. Старые серии при этом не удаляются, а продолжают раздаваться!

Eсли вы уже удалили старые серии, то предотвратить повторную закачку старых серий можно, отжав галочку в соответсвующих местах при запуске нового торрента. По возможности, желательно не удалять старые серии как можно дольше чтобы релизёр не столько продолжал раздавать старые серии, а смог сконцентрироваться на новых.
piratbit.org



Скачать Улица через торрент http://i91.fastpic.ru/big/2017/1002/a1/36e928179a3817b810b3d1f59af662a1.jpg Скачать фильм Улица через торрент бесплантно в хорошем качестве Описание: «Улица» — это история жителей одной из улиц спального района большого города. Школьники и студенты, домохозяйки и продавцы, ... 8.7 10 20
Торрент: Зарегистрирован [2018-06-08 18:40] · скачан: 62 раз
Статус: √ проверено
Размер: 9.76 GB
Как cкачать? Как скачать Улица через торрент | UTorrent

% Раздел Тема Автор DL S | L
TNT serials [ 9.25 GB ] Улица / Сезон: 2 / Серии: 1-34 из 34 [2018 HDTVRip] bober100 Скачать
1 | 0
TNT serials [ 42.61 GB ] Улица / Сезон: 2 / Серии: 1-34 из 34 [2018 HDTV 1080i] bober100 Скачать
1 | 0
TNT serials [ 21.95 GB ] Улица / Сезон: 2 / Серии: 1-34 из 34 [2018 HDTVRip 720p] bober100 Скачать
1 | 0
TNT serials [ 11.5 GB ] Улица / Сезон: 2 / Серии: 1-34 из 34 [2018 HDTVRip-AVC] bober100 Скачать
1 | 0


Последний раз редактировалось: bober100 (2018-05-21 17:47), всего редактировалось 8 раз(а)

28-11-2019 20:33  

Отключить всю рекламу на сайте

    Дорогой пользователь! Огромная просьба, поблагодарите релизера, оцените раздачу и оставьте свои комментарий, если Вы скачали Улица через торрент бесплатно! Внесите свою лепту в развитие PiratBit!
    Комментировать посты могут только пользователи прошедшие не сложную регистрацию
    Показать сообщения:    

    Улица через торрент
    Скачать бесплатно Улица
    Улица скачать торрент
    Улица смотреть онлайн
    Cкачать фильм Улица бесплатно
    Улица скачать торрент в хорошем качестве
    Улица смотреть онлайн бесплатно в хорошем качестве


    Вы не можете начинать темы
    Вы не можете отвечать на сообщения
    Вы не можете редактировать свои сообщения
    Вы не можете удалять свои сообщения
    Вы не можете голосовать в опросах
    Вы не можете прикреплять файлы к сообщениям
    Вы можете скачивать файлы