1 сезон

3 сезон

iTunes

1

iTunes

DUB Netflix

iTunes

13

1 сезон

RePack

30

Deluxe

pack

Легкие деньги

ВАЖНО

ИГРА 18+

pack

RePack

MK11

RePack

jed

RePack

fifa19

RePack

RDR2

RePack

NEED FOR SPEED™ PAYBACK

4 сезон

9 сезон

Бесстыжие 9 сезон

Все сериалы

все сериалы на PB.wtf

RePack

FAR CRY 5

Anonymous, доброе утро, мы не успеваем до 1 числа собрать деньги на оплату серверов, помогите нам пожалуйста в это трудное время. В качестве благодарности мы отключим Вам всю рекламу на сайте (укажите свой ник в строку Ваше имя)!

×
  
Magnet ссылка

Универ. Новая общага / Сезон: 14 / Серии: 1-18 из 18 (Константин Смирнов) [2018, Ситком, комедия, HDTVRip-AVC] piratbit.org

Универ. Новая общага через торрент piratbit.org

Размер: 6.48 GB | Добавлен: 3 года 1 мес. назад | Торрент скачан:54 раза
Скачать  

19-04-2018 21:09 Универ. Новая общага Скачать торрент  

Универ. Новая общага
Год выпуска: 2018
Страна: Россия
Жанр: Ситком, комедия
Продолжительность: ~ 00:25:00
Субтитры: отсутствуют

Режиссер: Константин Смирнов



В ролях:

Арарат Кещян, Александр Стекольников, Станислав Ярушин, Анна Кузина, Анна Хилькевич, Константин Шелягин, Григорий Кокоткин, Елена Валюшкина, Сергей Пиоро, Сергей Мурзин

Описание:

Универ» - больше, чем просто сериал. «Универ» - проверенный друг с отличным чувством юмора, сотнями готовых лайфхаков на все случаи жизни и хорошей долей самоиронии. За эти 10 лет некоторые из актрис сериала, снявшись обнаженными для мужских журналов, стали депутатами в Государственной думе, женами завидных иностранных миллионеров и самыми популярными инстаграмерами. Многие актеры обзавелись прекрасным потомством, а одна сериальная пара даже вдохновила авторов на создание отдельного спиноффа. Но главные герои нового сезона по-прежнему в отличной форме: Маша снимется в проекте 18+, Майкл получит крупное наследство, Антон найдет замену Кристине, а Валя поверит в себя и почувствует свою мужскую силу. Оставаться молодыми и дерзкими парней заставит еще один весомый аргумент: в общагу заселятся две новенькие героини – сестры-двойняшки Ника и Вика.

Качество: HDTVRip-AVC
Формат: MKV

Видео: MPEG-4 AVC, ~ 2000 Кбит/с, 1024x576, 25 кадр/с
Аудио: AC3, 2 ch, 192 Кбит/с
скриншот   скриншот   скриншот   скриншот  

Общее
Уникальный идентификатор : 186426413544832202696977099509616360054 (0x8C406BD5898E5B5C96249A49FF043A76)
Полное имя : D:\Univer.s14.(2018).HDTVRip.(AVC).Files-x\01.Универ.s14.(2018).HDTVRip.(AVC).by.Серый1779.Files-x.mkv
Формат : Matroska
Версия формата : Version 2
Размер файла : 350 Мбайт
Продолжительность : 22 м. 17 с.
Общий поток : 2194 Кбит/сек
Дата кодирования : UTC 2018-04-02 21:01:03
Программа кодирования : mkvmerge v7.8.0 ('River Man') 32bit built on Apr 3 2015 12:11:22
Библиотека кодирования : libebml v1.3.1 + libmatroska v1.4.2

Видео
Идентификатор : 1
Формат : AVC
Формат/Информация : Advanced Video Codec
Профиль формата : High@L4.1
Параметр CABAC формата : Да
Параметр RefFrames формата : 9 кадров
Идентификатор кодека : V_MPEG4/ISO/AVC
Продолжительность : 22 м. 17 с.
Битрейт : 2000 Кбит/сек
Ширина : 1024 пикселя
Высота : 576 пикселей
Соотношение сторон : 16:9
Режим частоты кадров : Постоянный
Частота кадров : 25,000 кадров/сек
Цветовое пространство : YUV
Субдискретизация насыщенности : 4:2:0
Битовая глубина : 8 бит
Тип развёртки : Прогрессивная
Бит/(Пиксели*Кадры) : 0.136
Размер потока : 312 Мбайт (89%)
Библиотека кодирования : x264 core 146 r2538 121396c
Настройки программы : cabac=1 / ref=9 / deblock=1:-2:-1 / analyse=0x3:0x133 / me=umh / subme=9 / psy=1 / psy_rd=1.00:0.15 / mixed_ref=1 / me_range=32 / chroma_me=1 / trellis=2 / 8x8dct=1 / cqm=0 / deadzone=21,11 / fast_pskip=0 / chroma_qp_offset=-3 / threads=18 / lookahead_threads=3 / sliced_threads=0 / nr=0 / decimate=1 / interlaced=0 / bluray_compat=0 / constrained_intra=0 / bframes=9 / b_pyramid=2 / b_adapt=2 / b_bias=0 / direct=1 / weightb=1 / open_gop=0 / weightp=2 / keyint=250 / keyint_min=25 / scenecut=40 / intra_refresh=0 / rc=2pass / mbtree=0 / bitrate=2000 / ratetol=1.0 / qcomp=0.60 / qpmin=0 / qpmax=69 / qpstep=4 / cplxblur=20.0 / qblur=0.5 / ip_ratio=1.40 / pb_ratio=1.30 / aq=2:1.00
Default : Да
Forced : Нет
Цветовой диапазон : Limited
Основные цвета : BT.709
Характеристики трансфера : BT.709
Коэффициенты матрицы : BT.709

Аудио
Идентификатор : 2
Формат : AC-3
Формат/Информация : Audio Coding 3
Расширение режима : CM (complete main)
Параметр Endianness формата : Big
Идентификатор кодека : A_AC3
Продолжительность : 22 м. 17 с.
Вид битрейта : Постоянный
Битрейт : 192 Кбит/сек
Каналы : 2 канала
Расположение каналов : Front: L R
Частота : 48,0 КГц
Частота кадров : 31,250 кадров/сек (1536 spf)
Метод сжатия : С потерями
Размер потока : 30,6 Мбайт (9%)
Default : Да
Forced : Нет

piratbit.org



Скачать Универ. Новая общага через торрент http://i99.fastpic.ru/big/2018/0405/35/71c4d70ee644e735b8d4533242713835.jpg Скачать фильм Универ. Новая общага через торрент бесплантно в хорошем качестве Описание: Универ» - больше, чем просто сериал. «Универ» - проверенный друг с отличным чувством юмора, сотнями готовых лайфхаков на все ... 5.5 10 4
Торрент: Зарегистрирован [2018-04-19 21:09] · скачан: 54 раз
Статус: √ проверено
Размер: 6.48 GB
Как cкачать? Как скачать Универ. Новая общага через торрент | UTorrent

% Раздел Тема Автор DL S | L
TNT serials [ 24.21 GB ] Универ. Новая общага / Сезон: 14 / Серии: 1-18 из 18 [2018 Ситком HDTV 1080i] bober100 Скачать
1 | 0
TNT serials [ 12.38 GB ] Универ. Новая общага / Сезон: 14 / Серии: 1-18 из 18 [2018 Ситком HDTVRip 720p] bober100 Скачать
1 | 0
TNT serials [ 5.8 GB ] Универ. Новая общага / Сезон: 14 / Серии: 1-18 из 18 [2018 Ситком SATRip] bober100 Скачать
1 | 0
TNT serials [ 11.41 GB ] Универ. Новая общага / Сезон: 14 / Серии: 1-18 из 18 [2018 Ситком WEB-DL 720p] bober100 Скачать
1 | 0
TNT serials [ 5.58 GB ] Универ. Новая общага / Сезон: 14 / Серии: 1-18 из 18 [2018 Ситком WEB-DLRip] bober100 Скачать
1 | 0
TNT serials [ 4.13 GB ] Универ. Новая общага / Сезон: 14 / Серии: 1-18 из 18 + Спец. выпуск [2018 Ситком HDTVRip] bober100 Скачать
1 | 0

28-11-2019 20:33  

Отключить всю рекламу на сайте

    Дорогой пользователь! Огромная просьба, поблагодарите релизера, оцените раздачу и оставьте свои комментарий, если Вы скачали Универ. Новая общага через торрент бесплатно! Внесите свою лепту в развитие PiratBit!
    Комментировать посты могут только пользователи прошедшие не сложную регистрацию
    Показать сообщения:    

    Универ. Новая общага через торрент
    Скачать бесплатно Универ. Новая общага
    Универ. Новая общага скачать торрент
    Универ. Новая общага смотреть онлайн
    Cкачать фильм Универ. Новая общага бесплатно
    Универ. Новая общага скачать торрент в хорошем качестве
    Универ. Новая общага смотреть онлайн бесплатно в хорошем качестве


    Вы не можете начинать темы
    Вы не можете отвечать на сообщения
    Вы не можете редактировать свои сообщения
    Вы не можете удалять свои сообщения
    Вы не можете голосовать в опросах
    Вы не можете прикреплять файлы к сообщениям
    Вы можете скачивать файлы