Достать ножи: Стеклянная луковица

MVO

Добыча

Дубляж

Уэнсдэй

1 сезон

Тор

Дубляж

13 клиническая

1 сезон

Жестокая ночь

MVO

Одни из нас

1 сезон

Deluxe

pack

Рекомендуем

30

Пиратка

ВАЖНО

ВАЖНО

Ghostwire

Пиратка

jed

RePack

nioh2

RePack

RDR2

RePack

NEED FOR SPEED™ PAYBACK

RePack

скачать торрент

Кинопоиск HD

Острые козырьки 6 сезон

6 сезон

FAR CRY 6

RePack

скачать торрент

Лицензия

скачать торрент

MVO

1

1 сезон

скачать торрент

1 сезон

скачать торрент

Лицензия

  

Чужой / Alien (Ридли Скотт) [1979, ужасы, фантастика, триллер, UHD WEB-DL 2160p] Дубляж + 2xMVO + 6xAVO [Театральная версия]

Чужой через торрент piratbit.org

Раздают: 1 [ 0 KB/s ]
Размер: 69.94 GB | Добавлен: 4 года 9 мес. назад | Торрент скачан:72 раза
Смотреть онлайн | Скачать | Поддержите нас   

21-04-2018 06:19 Чужой Скачать торрент  

Чужой / Alien«В космосе твой крик никто не услышит...»
Год выпуска: 1979
Страна: Великобритания, США
Жанр: ужасы, фантастика, триллер
Продолжительность: 01:56:38
Перевод: Дублированный, профессиональный многоголосый, авторский
Субтитры: Русские, английские
Режиссер: Ридли Скотт
В ролях:

Сигурни Уивер (Ripley), Том Скеррит (Dallas), Иэн Холм (Ash), Джон Хёрт (Kane), Гарри Дин Стэнтон (Brett), Вероника Картрайт (Lambert), Яфет Котто (Parker), Боладжи Бадеджо (Alien), Хелен Хортон (Mother, озвучка), Эдди Пауэлл (Alien, в титрах не указан)
Описание:
В далеком будущем возвращающийся на Землю грузовой космический корабль перехватывает исходящий с неизвестной планеты неопознанный сигнал. Экипаж принимает решение совершить посадку и разобраться, в чем дело. Оказавшись на планете, астронавты повсюду обнаруживают неопознанные предметы, по виду напоминающие гигантские коконы...
Рейтинг:

MPAA: R - Лицам до 17 лет обязательно присутствие взрослого
Качество: UHD WEB-DL 2160p (Ист. 2160p UHD 4K SDR WEB-DL AMAZON)
Формат: MKV
Видео: MPEG-4 AVC / 80.0 Mbps / 3840x2160 / 23.976 fps / 16:9 / High@L5.1 | BT.709
Аудио#1: Russian: 48 kHz/24-bit, DTS, 5.1, 768 kbps |Полное Дублирование, Blu-Ray CEE|
Аудио#2: Russian: 48 kHz/24-bit, DTS, 5.1, 768 kbps |Многоголосый закадровый, Двадцатый Век Фокс СНГ|
Аудио#3: Russian: 48 kHz/16-bit, АС3, 2.0, 192 kbps |Многоголосый закадровый, Премьер Видео Фильм|
Аудио#4: Russian: 48 kHz/16-bit, АС3, 5.1, 448 kbps |Одноголосый закадровый, Дмитрий Пучков (правильный перевод)|
Аудио#5: Russian: 48 kHz/16-bit, АС3, 2.0, 192 kbps |Одноголосый закадровый, Юрий Живов|
Аудио#6: Russian: 48 kHz/16-bit, АС3, 2.0, 192 kbps |Одноголосый закадровый, Василий Горчаков#1|
Аудио#7: Russian: 48 kHz/16-bit, АС3, 5.1, 448 kbps |Одноголосый закадровый, Василий Горчаков#2|
Аудио#8: Russian: 48 kHz/16-bit, АС3, 5.1, 448 kbps |Одноголосый закадровый, Василий Горчаков#3|
Аудио#9: Russian: 48 kHz/16-bit, АС3, 2.0, 192 kbps |Одноголосый закадровый, Леонид Володарский|
Аудио#10: Russian: 48 kHz/16-bit, АС3, 2.0, 192 kbps |Одноголосый закадровый, Неизвестный|
Аудио#11: Russian: 48 kHz/16-bit, АС3, 2.0, 192 kbps |Одноголосый закадровый, Виктор Махонько|
Аудио#12: English: 48 kHz/24-bit, DTS-HD MA 5.1, 3384.00 kbps
Аудио#13: English: 48 kHz/16-bit, АС3, 2.0, 224 kbps |Commentary#1|
Аудио#14: English: 48 kHz/16-bit, АС3, 2.0, 224 kbps |Commentary#2|
Аудио#13: English: 48 kHz/16-bit, АС3, 2.0, 224 kbps |Commentary#1|
Аудио#14: English: 48 kHz/16-bit, АС3, 2.0, 224 kbps |Commentary#2|
Аудио#15: English: 48 kHz/16-bit, АС3, 5.1, 448 kbps |Sounds#1|
Аудио#16: English: 48 kHz/16-bit, АС3, 5.1, 448 kbps |Sounds#2|
Навигация по главам: есть
Включён в 2002 году в Национальный регистр фильмов.
Сатурн, 2004 год
Номинации (1):
Лучшая DVD-коллекция — «For the Alien Quadrilogy»
Оскар, 1980 год
Победитель (1):
Лучшие визуальные эффекты
Номинации (1):
Лучшие декорации
Золотой глобус, 1980 год
Номинации (1):
Лучший саундтрек
Британская академия, 1980 год
Победитель (2):
Лучший саундтрек
Лучшая работа художника-постановщика
Номинации (5):
Лучшая мужская роль второго плана (Джон Хёрт)
Лучшие костюмы
Лучший монтаж
Самый многообещающий новичок (Сигурни Уивер)
Премия имени Энтони Эскуита за достижения в создании музыки к фильму
Сатурн, 1980 год
Победитель (3):
Лучший научно-фантастический фильм
Лучший режиссер (Ридли Скотт)
Лучшая актриса второго плана (Вероника Картрайт)
Номинации (4):
Лучшая актриса (Сигурни Уивер)
Лучший сценарий
Лучшие спецэффекты
Лучший грим
Сан-Себастьян, 1979 год
Победитель (1):
Серебряная раковина за лучшую работу оператора и спецэффекты
General
Unique ID : 20242265371041453152234777268868252337 (0xF3A84BC8C97025E1592810035BA82B1)
Complete name : E:\MOVIE\Alien_1979_Theatrical_Cut_2160p_4K_SDR_WEB-DL_AMZ_HHD.mkv
Format : Matroska
Format version : Version 4 / Version 2
File size : 69.9 GiB
Duration : 1 h 56 min
Overall bit rate : 85.8 Mb/s
Movie name : Alien (1979) [Theatrical Cut] 2160p 4K SDR WEB-DL AMZ
Encoded date : UTC 2018-04-13 19:20:32
Writing application : mkvmerge v22.0.0 ('At The End Of The World') 64-bit
Writing library : libebml v1.3.5 + libmatroska v1.4.8

Video
ID : 1
Format : AVC
Format/Info : Advanced Video Codec
Format profile : High@L5.1
Format settings, CABAC : Yes
Format settings, ReFrames : 4 frames
Codec ID : V_MPEG4/ISO/AVC
Duration : 1 h 56 min
Bit rate mode : Constant
Bit rate : 80.0 Mb/s / 80.0 Mb/s
Width : 3 840 pixels
Height : 2 160 pixels
Display aspect ratio : 16:9
Frame rate mode : Constant
Frame rate : 23.976 (24000/1001) FPS
Standard : NTSC
Color space : YUV
Chroma subsampling : 4:2:0
Bit depth : 8 bits
Scan type : Progressive
Bits/(Pixel*Frame) : 0.402
Stream size : 62.8 GiB (90%)
Title : Alien (1979) [Theatrical Cut] 2160p 4K SDR WEB-DL AMZ
Writing library : x264 core 114
Encoding settings : cabac=1 / ref=4 / deblock=1:0:0 / analyse=0x3:0x113 / me=hex / subme=7 / psy=1 / psy_rd=1.00:0.00 / mixed_ref=1 / me_range=16 / chroma_me=1 / trellis=1 / 8x8dct=1 / cqm=2 / deadzone=21,11 / fast_pskip=1 / chroma_qp_offset=-2 / threads=6 / sliced_threads=0 / slices=1 / nr=0 / decimate=1 / interlaced=0 / constrained_intra=0 / bframes=3 / b_pyramid=0 / b_adapt=1 / b_bias=0 / direct=1 / weightb=1 / open_gop=0 / weightp=2 / keyint=250 / keyint_min=23 / scenecut=100 / intra_refresh=0 / rc_lookahead=40 / rc=cbr / mbtree=1 / bitrate=80000 / ratetol=1.0 / qcomp=0.60 / qpmin=3 / qpmax=69 / qpstep=4 / vbv_maxrate=80000 / vbv_bufsize=79986 / nal_hrd=cbr / ip_ratio=1.40 / aq=1:1.00
Language : English
Default : Yes
Forced : Yes
Color range : Limited
Color primaries : BT.709
Transfer characteristics : BT.709
Matrix coefficients : BT.709

Audio #1
ID : 2
Format : DTS
Format/Info : Digital Theater Systems
Mode : 16
Format settings, Endianness : Big
Codec ID : A_DTS
Duration : 1 h 56 min
Bit rate mode : Constant
Bit rate : 768 kb/s
Channel(s) : 6 channels
Channel positions : Front: L C R, Side: L R, LFE
Sampling rate : 48.0 kHz
Frame rate : 93.750 FPS (512 spf)
Bit depth : 24 bits
Compression mode : Lossy
Delay relative to video : 22 ms
Stream size : 641 MiB (1%)
Title : RUS Дубляж DTS 5.1@768 kbps |Blu-ray CEE|
Language : Russian
Default : Yes
Forced : Yes

Audio #2
ID : 3
Format : DTS
Format/Info : Digital Theater Systems
Mode : 16
Format settings, Endianness : Big
Codec ID : A_DTS
Duration : 1 h 56 min
Bit rate mode : Constant
Bit rate : 755 kb/s
Channel(s) : 6 channels
Channel positions : Front: L C R, Side: L R, LFE
Sampling rate : 48.0 kHz
Frame rate : 93.750 FPS (512 spf)
Bit depth : 24 bits
Compression mode : Lossy
Delay relative to video : 22 ms
Stream size : 629 MiB (1%)
Title : RUS MVO DTS 5.1@768 kbps |20 Century Fox|
Language : Russian
Default : No
Forced : No

Audio #3
ID : 4
Format : AC-3
Format/Info : Audio Coding 3
Mode extension : CM (complete main)
Format settings, Endianness : Big
Codec ID : A_AC3
Duration : 1 h 56 min
Bit rate mode : Constant
Bit rate : 192 kb/s
Channel(s) : 2 channels
Channel positions : Front: L R
Sampling rate : 48.0 kHz
Frame rate : 31.250 FPS (1536 spf)
Bit depth : 16 bits
Compression mode : Lossy
Stream size : 160 MiB (0%)
Title : RUS MVO AC3 DD2.0@192 kbps |MVO Premier|
Language : Russian
Default : No
Forced : No

Audio #4
ID : 5
Format : AC-3
Format/Info : Audio Coding 3
Mode extension : CM (complete main)
Format settings, Endianness : Big
Codec ID : A_AC3
Duration : 1 h 56 min
Bit rate mode : Constant
Bit rate : 448 kb/s
Channel(s) : 6 channels
Channel positions : Front: L C R, Side: L R, LFE
Sampling rate : 48.0 kHz
Frame rate : 31.250 FPS (1536 spf)
Bit depth : 16 bits
Compression mode : Lossy
Stream size : 374 MiB (1%)
Title : RUS AVO AC3 DD5.1@448 kbps |Goblin|
Language : Russian
Default : No
Forced : No

Audio #5
ID : 6
Format : AC-3
Format/Info : Audio Coding 3
Mode extension : CM (complete main)
Format settings, Endianness : Big
Codec ID : A_AC3
Duration : 1 h 56 min
Bit rate mode : Constant
Bit rate : 192 kb/s
Channel(s) : 2 channels
Channel positions : Front: L R
Sampling rate : 48.0 kHz
Frame rate : 31.250 FPS (1536 spf)
Bit depth : 16 bits
Compression mode : Lossy
Stream size : 160 MiB (0%)
Title : RUS AVO AC3 DD2.0@192 kbps |Юрий Живов|
Language : Russian
Default : No
Forced : No

Audio #6
ID : 7
Format : AC-3
Format/Info : Audio Coding 3
Mode extension : CM (complete main)
Format settings, Endianness : Big
Codec ID : A_AC3
Duration : 1 h 56 min
Bit rate mode : Constant
Bit rate : 192 kb/s
Channel(s) : 2 channels
Channel positions : Front: L R
Sampling rate : 48.0 kHz
Frame rate : 31.250 FPS (1536 spf)
Bit depth : 16 bits
Compression mode : Lossy
Stream size : 160 MiB (0%)
Title : RUS AVO AC3 DD2.0@192 kbps |Василий Горчаков#2|
Language : Russian
Default : No
Forced : No

Audio #7
ID : 8
Format : AC-3
Format/Info : Audio Coding 3
Mode extension : CM (complete main)
Format settings, Endianness : Big
Codec ID : A_AC3
Duration : 1 h 56 min
Bit rate mode : Constant
Bit rate : 448 kb/s
Channel(s) : 6 channels
Channel positions : Front: L C R, Side: L R, LFE
Sampling rate : 48.0 kHz
Frame rate : 31.250 FPS (1536 spf)
Bit depth : 16 bits
Compression mode : Lossy
Stream size : 374 MiB (1%)
Title : RUS AVO AC3 DD5.1@448 kbps |Василий Горчаков#2|
Language : Russian
Default : No
Forced : No

Audio #8
ID : 9
Format : AC-3
Format/Info : Audio Coding 3
Mode extension : CM (complete main)
Format settings, Endianness : Big
Codec ID : A_AC3
Duration : 1 h 56 min
Bit rate mode : Constant
Bit rate : 448 kb/s
Channel(s) : 6 channels
Channel positions : Front: L C R, Side: L R, LFE
Sampling rate : 48.0 kHz
Frame rate : 31.250 FPS (1536 spf)
Bit depth : 16 bits
Compression mode : Lossy
Stream size : 374 MiB (1%)
Title : RUS AVO AC3 DD5.1@448 kbps |Василий Горчаков#3|
Language : Russian
Default : No
Forced : No

Audio #9
ID : 10
Format : AC-3
Format/Info : Audio Coding 3
Mode extension : CM (complete main)
Format settings, Endianness : Big
Codec ID : A_AC3
Duration : 1 h 56 min
Bit rate mode : Constant
Bit rate : 192 kb/s
Channel(s) : 2 channels
Channel positions : Front: L R
Sampling rate : 48.0 kHz
Frame rate : 31.250 FPS (1536 spf)
Bit depth : 16 bits
Compression mode : Lossy
Stream size : 160 MiB (0%)
Title : RUS AVO AC3 DD2.0@192 kbps |Леонид Володарский|
Language : Russian
Default : No
Forced : No

Audio #10
ID : 11
Format : AC-3
Format/Info : Audio Coding 3
Mode extension : CM (complete main)
Format settings, Endianness : Big
Codec ID : A_AC3
Duration : 1 h 56 min
Bit rate mode : Constant
Bit rate : 192 kb/s
Channel(s) : 2 channels
Channel positions : Front: L R
Sampling rate : 48.0 kHz
Frame rate : 31.250 FPS (1536 spf)
Bit depth : 16 bits
Compression mode : Lossy
Stream size : 160 MiB (0%)
Title : RUS AVO AC3 DD2.0@192 kbps |Неизвестный|
Language : Russian
Default : No
Forced : No

Audio #11
ID : 12
Format : AC-3
Format/Info : Audio Coding 3
Mode extension : CM (complete main)
Format settings, Endianness : Big
Codec ID : A_AC3
Duration : 1 h 56 min
Bit rate mode : Constant
Bit rate : 192 kb/s
Channel(s) : 2 channels
Channel positions : Front: L R
Sampling rate : 48.0 kHz
Frame rate : 31.250 FPS (1536 spf)
Bit depth : 16 bits
Compression mode : Lossy
Stream size : 160 MiB (0%)
Title : RUS AVO AC3 DD2.0@192 kbps |Махонько|
Language : Russian
Default : No
Forced : No

Audio #12
ID : 13
Format : DTS
Format/Info : Digital Theater Systems
Format profile : MA / Core
Mode : 16
Format settings, Endianness : Big
Codec ID : A_DTS
Duration : 1 h 56 min
Bit rate mode : Variable / Constant
Bit rate : 3 384 kb/s / 1 509 kb/s
Channel(s) : 6 channels
Channel positions : Front: L C R, Side: L R, LFE
Sampling rate : 48.0 kHz
Frame rate : 93.750 FPS (512 spf)
Bit depth : 24 bits
Compression mode : Lossless / Lossy
Stream size : 2.76 GiB (4%)
Title : ENG DTS-HD MA 5.1
Language : English
Default : No
Forced : No

Audio #13
ID : 14
Format : AC-3
Format/Info : Audio Coding 3
Mode extension : CM (complete main)
Format settings, Endianness : Big
Codec ID : A_AC3
Duration : 1 h 56 min
Bit rate mode : Constant
Bit rate : 224 kb/s
Channel(s) : 2 channels
Channel positions : Front: L R
Sampling rate : 48.0 kHz
Frame rate : 31.250 FPS (1536 spf)
Bit depth : 16 bits
Compression mode : Lossy
Stream size : 187 MiB (0%)
Title : ENG AC3 DD2.0 |Commentary#1|
Language : English
Default : No
Forced : No

Audio #14
ID : 15
Format : AC-3
Format/Info : Audio Coding 3
Mode extension : CM (complete main)
Format settings, Endianness : Big
Codec ID : A_AC3
Duration : 1 h 56 min
Bit rate mode : Constant
Bit rate : 224 kb/s
Channel(s) : 2 channels
Channel positions : Front: L R
Sampling rate : 48.0 kHz
Frame rate : 31.250 FPS (1536 spf)
Bit depth : 16 bits
Compression mode : Lossy
Stream size : 187 MiB (0%)
Title : ENG AC3 DD2.0 |Commentary#2|
Language : English
Default : No
Forced : No

Audio #15
ID : 16
Format : AC-3
Format/Info : Audio Coding 3
Mode extension : CM (complete main)
Format settings, Endianness : Big
Codec ID : A_AC3
Duration : 1 h 56 min
Bit rate mode : Constant
Bit rate : 448 kb/s
Channel(s) : 6 channels
Channel positions : Front: L C R, Side: L R, LFE
Sampling rate : 48.0 kHz
Frame rate : 31.250 FPS (1536 spf)
Bit depth : 16 bits
Compression mode : Lossy
Stream size : 374 MiB (1%)
Title : ENG AC3 DD5.1 |Sounds#1|
Language : English
Default : No
Forced : No

Audio #16
ID : 17
Format : AC-3
Format/Info : Audio Coding 3
Mode extension : CM (complete main)
Format settings, Endianness : Big
Codec ID : A_AC3
Duration : 1 h 56 min
Bit rate mode : Constant
Bit rate : 448 kb/s
Channel(s) : 6 channels
Channel positions : Front: L C R, Side: L R, LFE
Sampling rate : 48.0 kHz
Frame rate : 31.250 FPS (1536 spf)
Bit depth : 16 bits
Compression mode : Lossy
Stream size : 374 MiB (1%)
Title : ENG AC3 DD5.1 |Sounds#2|
Language : English
Default : No
Forced : No

Text #1
ID : 18
Format : UTF-8
Codec ID : S_TEXT/UTF8
Codec ID/Info : UTF-8 Plain Text
Duration : 1 h 54 min
Bit rate : 43 b/s
Count of elements : 776
Stream size : 36.6 KiB (0%)
Title : RUS Full
Language : Russian
Default : Yes
Forced : Yes

Text #2
ID : 19
Format : UTF-8
Codec ID : S_TEXT/UTF8
Codec ID/Info : UTF-8 Plain Text
Duration : 1 h 49 min
Bit rate : 30 b/s
Count of elements : 725
Stream size : 24.1 KiB (0%)
Title : ENG Full
Language : English
Default : No
Forced : No

Text #3
ID : 20
Format : UTF-8
Codec ID : S_TEXT/UTF8
Codec ID/Info : UTF-8 Plain Text
Duration : 1 h 56 min
Bit rate : 110 b/s
Count of elements : 1393
Stream size : 93.8 KiB (0%)
Title : RUS Commentary (1999)
Language : Russian
Default : No
Forced : No

Text #4
ID : 21
Format : UTF-8
Codec ID : S_TEXT/UTF8
Codec ID/Info : UTF-8 Plain Text
Duration : 1 h 56 min
Bit rate : 161 b/s
Count of elements : 1852
Stream size : 138 KiB (0%)
Title : RUS Commentary (2003)
Language : Russian
Default : No
Forced : No

Menu
00:00:00.000 : en:Main Titles
00:02:01.121 : en:Awakenings
00:09:17.223 : en:Nostromo Re-Routed
00:12:47.141 : en:Answering the Call
00:18:36.949 : en:Walking Distance
00:21:53.687 : en:Proceeding Blindly
00:23:53.974 : en:Dark Horizons
00:26:50.608 : en:A Word of Warning
00:31:06.781 : en:Kane's Descent
00:34:47.502 : en:Surface Tension
00:39:14.268 : en:Acid
00:42:06.899 : en:Standard Procedure
00:46:25.282 : en:The Missing Guest
00:50:55.468 : en:Long Journey Ahead
00:53:35.837 : en:The Last Supper
00:58:26.127 : en:On the Hunt
01:03:32.475 : en:"Here Jonesy"
01:08:07.499 : en:"What Are My Chances?"
01:11:01.173 : en:Into the Air Ducts
01:14:09.611 : en:The Third Junction
01:15:51.129 : en:"No Blood, No Dallas"
01:18:37.212 : en:Special Order
01:24:10.128 : en:"Crew Expendable"
01:28:24.006 : en:Escape Plan
01:30:54.323 : en:"Kitty, Kitty, Kitty"
01:32:53.484 : en:Cornered
01:34:44.511 : en:Auto-Destruct Initiated
01:36:28.615 : en:Override Failed
01:39:27.544 : en:Narcissus Escape
01:44:15.957 : en:Survivors
01:47:05.668 : en:"You Are My Lucky Star"
01:53:53.075 : en:End Credits



Скачать Чужой через торрент http://i105.fastpic.ru/big/2018/0421/3e/4093f573dc7d60adcd6f7ed9e6f0aa3e.png Скачать, смотреть онлайн Чужой бесплантно в хорошем качестве Описание: В далеком будущем возвращающийся на Землю грузовой космический корабль перехватывает исходящий с неизвестной планеты неопознанный ... 10 10 4
Info! Золотая раздача, скачанное не засчитывается.
Торрент: Зарегистрирован [2018-04-21 06:19] · скачан: 72 раз
Статус: √ проверено
Размер: 69.94 GB
Как cкачать? Как скачать Чужой через торрент | UTorrent

% Раздел Тема Автор DL S | L
Сборники и Сиквелы (48-60 fps) [ 21.15 GB ] Чужие / Aliens | Чужие / Aliens | 720p / 60 fps / Theatrical cut / Квадрология Ворон Скачать
1 | 1
Ultra HD (UHD: 2K, 4K, 8K) [ 27.76 GB ] Чужой / Alien | DUB + 3xMVO + 3xAVO | 2160p sheker187 Скачать
1 | 0
Ultra HD (UHD: 2K, 4K, 8K) [ 54.19 GB ] Чужой / Alien | DUB + 3xMVO + 3xAVO | 2160p sheker187 Скачать
1 | 0
Ultra HD (UHD: 2K, 4K, 8K) [ 46.76 GB ] Чужой / Alien | DUB + 2xMVO + 5xAVO + VO | 2160p sheker187 Скачать
1 | 0
Фильмы [HD 720p, 1080p] (Хороший звук DUB, MVO) [ 9.19 GB ] Чужой: Завет / Alien: Covenant | Лицензия | 1080p, HEVC (10bit Мичман37 Скачать
1 | 0
Фильмы 2017 [DVDrip, WEB-DLRip, HDrip] (DUB, MVO) [ 5.01 GB ] Чужой: Завет / Alien: Covenant | MVO | DLRip-AVC, Dub, MVO, 5 x AVO morfyi Скачать
1 | 0
Ultra HD (UHD: 2K, 4K, 8K) [ 20.22 GB ] Чужой: Завет / Alien: Covenant | DUB | 2160p sheker187 Скачать
1 | 0

28-11-2019 20:33  


Отключить вcю реклaмy на сайте, в т.ч. и в плеере онлайн просмотра!

    Дорогой пользователь! Огромная просьба, поблагодарите релизера, оцените раздачу и оставьте свои комментарий, если Вы скачали Чужой через торрент бесплатно!!
    Комментировать посты могут только пользователи прошедшие не сложную регистрацию
    Показать сообщения:    


    Чужой через торрент
    Скачать бесплатно Чужой
    Чужой скачать торрент
    Чужой смотреть онлайн
    Cкачать фильм Чужой бесплатно
    Чужой скачать торрент в хорошем качестве
    Чужой смотреть онлайн бесплатно в хорошем качестве
    Вы не можете начинать темы
    Вы не можете отвечать на сообщения
    Вы не можете редактировать свои сообщения
    Вы не можете удалять свои сообщения
    Вы не можете голосовать в опросах
    Вы не можете прикреплять файлы к сообщениям
    Вы можете скачивать файлы
    Чужой / Alien [1979, ужасы, фантастика, триллер, UHD WEB-DL 2160p] Дубляж + 2xMVO + 6xAVO [Театральная версия] смотреть онлайн, скачать торрент picoco.icu