Достать ножи: Стеклянная луковица

MVO

Добыча

Дубляж

Уэнсдэй

1 сезон

Тор

Дубляж

13 клиническая

1 сезон

Жестокая ночь

MVO

Одни из нас

1 сезон

Deluxe

pack

Рекомендуем

30

Пиратка

ВАЖНО

ВАЖНО

Ghostwire

Пиратка

jed

RePack

nioh2

RePack

RDR2

RePack

NEED FOR SPEED™ PAYBACK

RePack

скачать торрент

Кинопоиск HD

Острые козырьки 6 сезон

6 сезон

FAR CRY 6

RePack

скачать торрент

Лицензия

скачать торрент

MVO

1

1 сезон

скачать торрент

1 сезон

скачать торрент

Лицензия

  

Чужие / Aliens (Джеймс Кэмерон) [1986, ужасы, фантастика, боевик, UHD WEB-DL 2160p] Дубляж + 4xMVO +5xAVO [Режиссерская версия]

Чужие через торрент piratbit.org

Размер: 94.43 GB | Добавлен: 4 года 9 мес. назад | Торрент скачан:173 раза
Смотреть онлайн | Скачать | Поддержите нас   

21-04-2018 08:11 Чужие Скачать торрент  

Чужие / Aliens«В некоторых местах Вселенной вы не одиноки...»
Год выпуска: 1986
Страна: США
Жанр: ужасы, фантастика, боевик, триллер, приключения
Продолжительность: 02:34:26
Перевод: Дублированный, профессиональный многоголосый, авторский
Субтитры: Русские, английские, украинские
Режиссер: Джеймс Кэмерон
В ролях:

Сигурни Уивер (Ripley), Майкл Бин (Corporal Hicks), Кэрри Хенн (Newt), Пол Райзер (Burke), Лэнс Хенриксен (Bishop), Билл Пэкстон (Private Hudson), Уильям Хоуп (Lieutenant Gorman), Дженетт Голдстин (Private Vasquez), Эл Мэтьюз (Sergeant Apone), Марк Ролстон (Private Drake), Рикко Росс (Private Frost), Колетт Хиллер (Corporal Ferro)
Описание:
Чужой - совершенный организм. Идеальная машина для убийства, чье физическое превосходство сочетается с его феноменальной жаждой уничтожения. Офицер Элен Рипли и команда космического корабля Ностромо один раз уже встретилась с такой тварью. В живых осталась только Элен.
Рейтинг:

MPAA: R - Лицам до 17 лет обязательно присутствие взрослого
Качество: UHD WEB-DL 2160p (Ист. 2160p UHD 4K SDR WEB-DL AMAZON)
Формат: MKV
Видео: MPEG-4 AVC / 80.0 Mbps / 3840x2160 / 23.976 fps / 16:9 / High@L5.1 | BT.709
Аудио#1: Russian: 48 kHz/16-bit, АС3, 5.1, 448 kbps |Полное Дублирование, Blu-Ray EUR|
Аудио#2: Russian: 48 kHz/16-bit, АС3, 5.1, 448 kbps |Многоголосый закадровый, Киномания|
Аудио#3: Russian: 48 kHz/16-bit, АС3, 5.1, 448 kbps |Многоголосый закадровый, Позитив Мультимедиа|
Аудио#4: Russian: 48 kHz/16-bit, АС3, 5.1, 448 kbps |Многоголосый закадровый, Супербит|
Аудио#5: Russian: 48 kHz/16-bit, АС3, 5.1, 448 kbps |Многоголосый закадровый, LDV|
Аудио#6: Russian: 48 kHz/16-bit, АС3, 5.1, 448 kbps |Одноголосый закадровый, Андрей Гаврилов|
Аудио#7: Russian: 48 kHz/16-bit, АС3, 5.1, 448 kbps |Одноголосый закадровый, Василий Горчаков|
Аудио#8: Russian: 48 kHz/16-bit, АС3, 5.1, 448 kbps |Одноголосый закадровый, Александр Кашкин (Первомайский)|
Аудио#9: Russian: 48 kHz/16-bit, АС3, 5.1, 448 kbps |Одноголосый закадровый, Александр Марченко|
Аудио#10: Russian: 48 kHz/16-bit, АС3, 5.1, 448 kbps |Одноголосый закадровый, Дмитрий Пучков (правильный перевод)|
Аудио#11: English: 48 kHz/24-bit, DTS-HD MA 5.1, 3981.00 kbps
Аудио#12: English: 48 kHz/16-bit, АС3, 2.0, 224 kbps |Commentary|
Аудио#13: English: 48 kHz/16-bit, АС3, 5.1, 448 kbps |Sounds#1|
Аудио#14: English: 48 kHz/16-bit, АС3, 5.1, 448 kbps |Sounds#2|
Навигация по главам: есть


Оскар, 1987 год
Победитель (2):
Лучший монтаж звука
Лучшие визуальные эффекты
Номинации (5):
Лучшая женская роль (Сигурни Уивер)
Лучшие декорации
Лучший звук
Лучший монтаж
Лучший оригинальный саундтрек
Золотой глобус, 1987 год
Номинации (1):
Лучшая женская роль (драма) (Сигурни Уивер)
Британская академия, 1987 год
Победитель (1):
Лучшие визуальные эффекты
Номинации (3):
Лучший звук
Лучший грим
Лучшая работа художника-постановщика
General
Unique ID : 80861352363064894110166722349320636046 (0x3CD55479F5DA3B222A3CC4C87F18068E)
Complete name : E:\MOVIE\Aliens_1986_Directors_Cut_2160p_4K_SDR_WEB-DL_AMZ_HHD.mkv
Format : Matroska
Format version : Version 4 / Version 2
File size : 94.4 GiB
Duration : 2 h 34 min
Overall bit rate : 87.5 Mb/s
Movie name : Aliens (1986) [Director's Cut] 2160p 4K SDR WEB-DL AMZ
Encoded date : UTC 2018-04-14 08:43:55
Writing application : mkvmerge v22.0.0 ('At The End Of The World') 64-bit
Writing library : libebml v1.3.5 + libmatroska v1.4.8

Video
ID : 1
Format : AVC
Format/Info : Advanced Video Codec
Format profile : High@L5.1
Format settings, CABAC : Yes
Format settings, ReFrames : 4 frames
Codec ID : V_MPEG4/ISO/AVC
Duration : 2 h 34 min
Bit rate mode : Constant
Bit rate : 80.0 Mb/s / 80.0 Mb/s
Width : 3 840 pixels
Height : 2 160 pixels
Display aspect ratio : 16:9
Frame rate mode : Constant
Frame rate : 23.976 (24000/1001) FPS
Standard : NTSC
Color space : YUV
Chroma subsampling : 4:2:0
Bit depth : 8 bits
Scan type : Progressive
Bits/(Pixel*Frame) : 0.402
Stream size : 84.1 GiB (89%)
Title : Aliens (1986) [Director's Cut] 2160p 4K SDR WEB-DL AMZ
Writing library : x264 core 114
Encoding settings : cabac=1 / ref=4 / deblock=1:0:0 / analyse=0x3:0x113 / me=hex / subme=7 / psy=1 / psy_rd=1.00:0.00 / mixed_ref=1 / me_range=16 / chroma_me=1 / trellis=1 / 8x8dct=1 / cqm=2 / deadzone=21,11 / fast_pskip=1 / chroma_qp_offset=-2 / threads=6 / sliced_threads=0 / slices=1 / nr=0 / decimate=1 / interlaced=0 / constrained_intra=0 / bframes=3 / b_pyramid=0 / b_adapt=1 / b_bias=0 / direct=1 / weightb=1 / open_gop=0 / weightp=2 / keyint=250 / keyint_min=23 / scenecut=100 / intra_refresh=0 / rc_lookahead=40 / rc=cbr / mbtree=1 / bitrate=80000 / ratetol=1.0 / qcomp=0.60 / qpmin=3 / qpmax=69 / qpstep=4 / vbv_maxrate=80000 / vbv_bufsize=79986 / nal_hrd=cbr / ip_ratio=1.40 / aq=1:1.00
Language : English
Default : Yes
Forced : Yes
Color range : Limited
Color primaries : BT.709
Transfer characteristics : BT.709
Matrix coefficients : BT.709

Audio #1
ID : 2
Format : AC-3
Format/Info : Audio Coding 3
Mode extension : CM (complete main)
Format settings, Endianness : Big
Codec ID : A_AC3
Duration : 2 h 34 min
Bit rate mode : Constant
Bit rate : 448 kb/s
Channel(s) : 6 channels
Channel positions : Front: L C R, Side: L R, LFE
Sampling rate : 48.0 kHz
Frame rate : 31.250 FPS (1536 spf)
Bit depth : 16 bits
Compression mode : Lossy
Stream size : 495 MiB (1%)
Title : RUS Дубляж AC3 DD5.1 |Blu Ray EUR|
Language : Russian
Default : Yes
Forced : Yes

Audio #2
ID : 3
Format : AC-3
Format/Info : Audio Coding 3
Mode extension : CM (complete main)
Format settings, Endianness : Big
Codec ID : A_AC3
Duration : 2 h 34 min
Bit rate mode : Constant
Bit rate : 448 kb/s
Channel(s) : 6 channels
Channel positions : Front: L C R, Side: L R, LFE
Sampling rate : 48.0 kHz
Frame rate : 31.250 FPS (1536 spf)
Bit depth : 16 bits
Compression mode : Lossy
Stream size : 495 MiB (1%)
Title : RUS МVO AC3 DD5.1@448 kbps |Киномания|
Language : Russian
Default : No
Forced : No

Audio #3
ID : 4
Format : AC-3
Format/Info : Audio Coding 3
Mode extension : CM (complete main)
Format settings, Endianness : Big
Codec ID : A_AC3
Duration : 2 h 34 min
Bit rate mode : Constant
Bit rate : 448 kb/s
Channel(s) : 6 channels
Channel positions : Front: L C R, Side: L R, LFE
Sampling rate : 48.0 kHz
Frame rate : 31.250 FPS (1536 spf)
Bit depth : 16 bits
Compression mode : Lossy
Stream size : 495 MiB (1%)
Title : RUS MVO AC3 DD5.1@448 kbps |Позитив-Мультимедиа|
Language : Russian
Default : No
Forced : No

Audio #4
ID : 5
Format : AC-3
Format/Info : Audio Coding 3
Mode extension : CM (complete main)
Format settings, Endianness : Big
Codec ID : A_AC3
Duration : 2 h 34 min
Bit rate mode : Constant
Bit rate : 448 kb/s
Channel(s) : 6 channels
Channel positions : Front: L C R, Side: L R, LFE
Sampling rate : 48.0 kHz
Frame rate : 31.250 FPS (1536 spf)
Bit depth : 16 bits
Compression mode : Lossy
Stream size : 495 MiB (1%)
Title : RUS MVO AC3 DD5.1@448 kbps |Супербит|
Language : Russian
Default : No
Forced : No

Audio #5
ID : 6
Format : AC-3
Format/Info : Audio Coding 3
Mode extension : CM (complete main)
Format settings, Endianness : Big
Codec ID : A_AC3
Duration : 2 h 34 min
Bit rate mode : Constant
Bit rate : 448 kb/s
Channel(s) : 6 channels
Channel positions : Front: L C R, Side: L R, LFE
Sampling rate : 48.0 kHz
Frame rate : 31.250 FPS (1536 spf)
Bit depth : 16 bits
Compression mode : Lossy
Stream size : 495 MiB (1%)
Title : RUS MVO AC3 DD5.1@448 kbps |LDV|
Language : Russian
Default : No
Forced : No

Audio #6
ID : 7
Format : AC-3
Format/Info : Audio Coding 3
Mode extension : CM (complete main)
Format settings, Endianness : Big
Codec ID : A_AC3
Duration : 2 h 34 min
Bit rate mode : Constant
Bit rate : 448 kb/s
Channel(s) : 6 channels
Channel positions : Front: L C R, Side: L R, LFE
Sampling rate : 48.0 kHz
Frame rate : 31.250 FPS (1536 spf)
Bit depth : 16 bits
Compression mode : Lossy
Stream size : 495 MiB (1%)
Title : RUS AVO AC3 DD5.1@448 kbps |Андрей Гаврилов|
Language : Russian
Default : No
Forced : No

Audio #7
ID : 8
Format : AC-3
Format/Info : Audio Coding 3
Mode extension : CM (complete main)
Format settings, Endianness : Big
Codec ID : A_AC3
Duration : 2 h 34 min
Bit rate mode : Constant
Bit rate : 448 kb/s
Channel(s) : 6 channels
Channel positions : Front: L C R, Side: L R, LFE
Sampling rate : 48.0 kHz
Frame rate : 31.250 FPS (1536 spf)
Bit depth : 16 bits
Compression mode : Lossy
Stream size : 495 MiB (1%)
Title : RUS AVO AC3 DD5.1@448 kbps |Василий Горчаков|
Language : Russian
Default : No
Forced : No

Audio #8
ID : 9
Format : AC-3
Format/Info : Audio Coding 3
Mode extension : CM (complete main)
Format settings, Endianness : Big
Codec ID : A_AC3
Duration : 2 h 34 min
Bit rate mode : Constant
Bit rate : 448 kb/s
Channel(s) : 6 channels
Channel positions : Front: L C R, Side: L R, LFE
Sampling rate : 48.0 kHz
Frame rate : 31.250 FPS (1536 spf)
Bit depth : 16 bits
Compression mode : Lossy
Stream size : 495 MiB (1%)
Title : RUS AVO AC3 DD5.1@448 kbps |Александр Кашкин|
Language : Russian
Default : No
Forced : No

Audio #9
ID : 10
Format : AC-3
Format/Info : Audio Coding 3
Mode extension : CM (complete main)
Format settings, Endianness : Big
Codec ID : A_AC3
Duration : 2 h 34 min
Bit rate mode : Constant
Bit rate : 448 kb/s
Channel(s) : 6 channels
Channel positions : Front: L C R, Side: L R, LFE
Sampling rate : 48.0 kHz
Frame rate : 31.250 FPS (1536 spf)
Bit depth : 16 bits
Compression mode : Lossy
Stream size : 495 MiB (1%)
Title : RUS AVO AC3 DD5.1@448 kbps |Александр Марченко|
Language : Russian
Default : No
Forced : No

Audio #10
ID : 11
Format : AC-3
Format/Info : Audio Coding 3
Mode extension : CM (complete main)
Format settings, Endianness : Big
Codec ID : A_AC3
Duration : 2 h 34 min
Bit rate mode : Constant
Bit rate : 448 kb/s
Channel(s) : 6 channels
Channel positions : Front: L C R, Side: L R, LFE
Sampling rate : 48.0 kHz
Frame rate : 31.250 FPS (1536 spf)
Bit depth : 16 bits
Compression mode : Lossy
Stream size : 495 MiB (1%)
Title : RUS AVO AC3 DD5.1@448 kbps |Пучков|
Language : Russian
Default : No
Forced : No

Audio #11
ID : 12
Format : DTS
Format/Info : Digital Theater Systems
Format profile : MA / Core
Mode : 16
Format settings, Endianness : Big
Codec ID : A_DTS
Duration : 2 h 34 min
Bit rate mode : Variable / Constant
Bit rate : 3 981 kb/s / 1 509 kb/s
Channel(s) : 6 channels
Channel positions : Front: L C R, Side: L R, LFE
Sampling rate : 48.0 kHz
Frame rate : 93.750 FPS (512 spf)
Bit depth : 24 bits
Compression mode : Lossless / Lossy
Stream size : 4.30 GiB (5%)
Title : ENG DTS-HD MA 5.1 |Blu Ray EUR|
Language : English
Default : No
Forced : No

Audio #12
ID : 13
Format : AC-3
Format/Info : Audio Coding 3
Mode extension : CM (complete main)
Format settings, Endianness : Big
Codec ID : A_AC3
Duration : 2 h 34 min
Bit rate mode : Constant
Bit rate : 224 kb/s
Channel(s) : 2 channels
Channel positions : Front: L R
Sampling rate : 48.0 kHz
Frame rate : 31.250 FPS (1536 spf)
Bit depth : 16 bits
Compression mode : Lossy
Stream size : 247 MiB (0%)
Title : ENG DD2.0 |Commentary Blu Ray EUR|
Language : English
Default : No
Forced : No

Audio #13
ID : 14
Format : AC-3
Format/Info : Audio Coding 3
Mode extension : CM (complete main)
Format settings, Endianness : Big
Codec ID : A_AC3
Duration : 2 h 34 min
Bit rate mode : Constant
Bit rate : 448 kb/s
Channel(s) : 6 channels
Channel positions : Front: L C R, Side: L R, LFE
Sampling rate : 48.0 kHz
Frame rate : 31.250 FPS (1536 spf)
Bit depth : 16 bits
Compression mode : Lossy
Stream size : 495 MiB (1%)
Title : ENG DD5.1 |Sounds#1 Blu Ray EUR|
Language : English
Default : No
Forced : No

Audio #14
ID : 15
Format : AC-3
Format/Info : Audio Coding 3
Mode extension : CM (complete main)
Format settings, Endianness : Big
Codec ID : A_AC3
Duration : 2 h 34 min
Bit rate mode : Constant
Bit rate : 448 kb/s
Channel(s) : 6 channels
Channel positions : Front: L C R, Side: L R, LFE
Sampling rate : 48.0 kHz
Frame rate : 31.250 FPS (1536 spf)
Bit depth : 16 bits
Compression mode : Lossy
Stream size : 495 MiB (1%)
Title : ENG DD5.1 |Sounds#2 Blu Ray EUR|
Language : English
Default : No
Forced : No

Text #1
ID : 16
Format : UTF-8
Codec ID : S_TEXT/UTF8
Codec ID/Info : UTF-8 Plain Text
Duration : 2 h 30 min
Bit rate : 55 b/s
Count of elements : 1171
Stream size : 60.6 KiB (0%)
Title : RUS Full |Blu Ray EUR|
Language : Russian
Default : Yes
Forced : Yes

Text #2
ID : 17
Format : UTF-8
Codec ID : S_TEXT/UTF8
Codec ID/Info : UTF-8 Plain Text
Duration : 2 h 26 min
Bit rate : 64 b/s
Count of elements : 1142
Stream size : 68.7 KiB (0%)
Title : UKR Full |DVD9|
Language : Ukrainian
Default : No
Forced : No

Text #3
ID : 18
Format : UTF-8
Codec ID : S_TEXT/UTF8
Codec ID/Info : UTF-8 Plain Text
Duration : 2 h 30 min
Bit rate : 65 b/s
Count of elements : 1245
Stream size : 72.9 KiB (0%)
Title : RUS Full |Киномания|
Language : Russian
Default : No
Forced : No

Text #4
ID : 19
Format : ASS
Codec ID : S_TEXT/ASS
Codec ID/Info : Advanced Sub Station Alpha
Duration : 2 h 26 min
Bit rate : 87 b/s
Count of elements : 1428
Compression mode : Lossless
Stream size : 93.4 KiB (0%)
Title : ENG Full |Blu Ray EUR|
Language : English
Default : No
Forced : No

Menu
00:00:00.000 : en:Main Titles
00:02:06.750 : en:Human Salvage
00:05:15.731 : en:57 Years
00:08:34.346 : en:The Park
00:10:52.108 : en:Inquest
00:15:13.619 : en:Lv-426
00:17:25.001 : en:The Big Score
00:20:54.126 : en:Home Alone
00:25:02.500 : en:Ripley's Decision
00:25:57.471 : en:Sulaco
00:30:03.718 : en:The Android
00:32:53.887 : en:Briefing
00:35:56.862 : en:The Loader
00:38:03.530 : en:Express Elevator to Hell
00:45:40.070 : en:Arrival
00:52:28.518 : en:Memories
00:54:48.076 : en:Lab Specimens
00:56:09.114 : en:Movement
01:00:11.106 : en:Newt
01:04:47.506 : en:Rescue Mission
01:10:10.997 : en:Cocoons
01:12:51.992 : en:The Battle
01:16:22.868 : en:Ripley's Rescue
01:21:22.252 : en:Altercation
01:23:17.198 : en:Stranded
01:26:21.134 : en:Barricade
01:31:22.059 : en:A Mother's Love
01:34:37.421 : en:Speculation
01:37:25.255 : en:The Tunnel
01:38:40.706 : en:Bad News
01:41:23.243 : en:The Corridor
01:45:03.462 : en:Dreamland
01:47:15.552 : en:Not a Dream
01:51:41.402 : en:For a Percentage
01:52:58.604 : en:"Game Time"
02:02:10.363 : en:Little Girl Lost
02:05:54.046 : en:Ripley's Promise
02:07:41.986 : en:Reluctant Soldier
02:13:15.528 : en:The Nest
02:17:29.615 : en:The Final Countdown
02:22:24.700 : en:It's Over
02:23:16.710 : en:Final Confrontation
02:30:16.004 : en:Dreams
02:31:36.460 : en:End Titles



Скачать Чужие через торрент http://i105.fastpic.ru/big/2018/0421/99/030ad8f9abf0d3d8d82fcb6ed8679399.png Скачать, смотреть онлайн Чужие бесплантно в хорошем качестве Описание: Чужой - совершенный организм. Идеальная машина для убийства, чье физическое превосходство сочетается с его феноменальной жаждой ... 10 10 8
Info! Золотая раздача, скачанное не засчитывается.
Торрент: Зарегистрирован [2018-04-21 08:11] · скачан: 173 раз
Статус: √ проверено
Размер: 94.43 GB
Как cкачать? Как скачать Чужие через торрент | UTorrent

% Раздел Тема Автор DL S | L
Сборники и Сиквелы (48-60 fps) [ 21.15 GB ] Чужие / Aliens | Чужие / Aliens | 720p / 60 fps / Theatrical cut / Квадрология Ворон Скачать
1 | 2
Фильмы (HD 720p, 1080p) (48-60 fps) [ 28.76 GB ] Чужие / Aliens | Дубляж | 1080p / 60 FPS sander86 Скачать
1 | 1
Сборники (HD Video) [ 37.92 GB ] Чужой: Антология / Alien Anthology | | 1080p, Dub _denis_100 Скачать
2 | 0
Сборники и Сиквелы (48-60 fps) [ 31.1 GB ] Чужие / Aliens | Чужие / Aliens | 1080p / 60 fps / Theatrical cut / Квадрология СидБот60fps Скачать
1 | 1
Фильмы (Blu-ray, BD-Remux, HDDVD) [ 169.24 GB ] Чужие: Антология / Alien Anthology | | 1080p nikolay27rus Скачать
1 | 0
Сборники (HD Video) [ 65.78 GB ] От Прометея к Чужому. Эволюция / Prometheus to Alien: The Evolution | DUB | 1080p akcent Скачать
1 | 0
Сборники на DVD и Сиквелы [DVDrip, WEB-DLRip, HDrip, BDRip] [ 14.12 GB ] Чужие / Aliens | , триллер, приключения, BDRip | BDRip snouman82 Скачать
2 | 1

28-11-2019 20:33  


Отключить вcю реклaмy на сайте, в т.ч. и в плеере онлайн просмотра!

    Дорогой пользователь! Огромная просьба, поблагодарите релизера, оцените раздачу и оставьте свои комментарий, если Вы скачали Чужие через торрент бесплатно!!
    Комментировать посты могут только пользователи прошедшие не сложную регистрацию
    Показать сообщения:    


    Чужие через торрент
    Скачать бесплатно Чужие
    Чужие скачать торрент
    Чужие смотреть онлайн
    Cкачать фильм Чужие бесплатно
    Чужие скачать торрент в хорошем качестве
    Чужие смотреть онлайн бесплатно в хорошем качестве
    Вы не можете начинать темы
    Вы не можете отвечать на сообщения
    Вы не можете редактировать свои сообщения
    Вы не можете удалять свои сообщения
    Вы не можете голосовать в опросах
    Вы не можете прикреплять файлы к сообщениям
    Вы можете скачивать файлы
    Чужие / Aliens [1986, ужасы, фантастика, боевик, UHD WEB-DL 2160p] Дубляж + 4xMVO +5xAVO [Режиссерская версия] смотреть онлайн, скачать торрент picoco.icu