Достать ножи: Стеклянная луковица

MVO

Добыча

Дубляж

Уэнсдэй

1 сезон

Тор

Дубляж

13 клиническая

1 сезон

Жестокая ночь

MVO

Одни из нас

1 сезон

Deluxe

pack

Рекомендуем

30

Пиратка

ВАЖНО

ВАЖНО

Ghostwire

Пиратка

jed

RePack

nioh2

RePack

RDR2

RePack

NEED FOR SPEED™ PAYBACK

RePack

скачать торрент

Кинопоиск HD

Острые козырьки 6 сезон

6 сезон

FAR CRY 6

RePack

скачать торрент

Лицензия

скачать торрент

MVO

1

1 сезон

скачать торрент

1 сезон

скачать торрент

Лицензия

  

Игра Эндера / Ender's Game (Гэвин Худ) [2013, Фантастика, боевик, приключения, экранизация, UHD BDRip 2160p] Дубляж (rus, ukr) + 2xAVO

Игра Эндера через торрент piratbit.org

Размер: 14.38 GB | Добавлен: 4 года 9 мес. назад | Торрент скачан:74 раза
Смотреть онлайн | Скачать | Поддержите нас   

22-04-2018 02:59 Игра Эндера Скачать торрент  

Игра ЭндераEnder's Game«Это не игра» Год выпуска: 2013
Страна: США
Жанр: Фантастика, боевик, приключения, экранизация
Продолжительность: 01:53:48
Перевод: Профессиональный (полное дублирование) | Авторский одноголосый
Субтитры: Русские, английские, испанские
Режиссер: Гэвин Худ
В ролях:
Эйса Баттерфилд (Ender Wiggin), Харрисон Форд (Colonel Graff), Бен Кингсли (Mazer Rackham), Виола Дэвис (Major Gwen Anderson), Хейли Стайнфелд (Petra Arkanian), Эбигейл Бреслин (Valentine Wiggin), Арамис Найт (Bean), Сурадж Партха (Alai), Мойзес Ариас (Bonzo Madrid), Кайлин Рамбо (Dink Meeker), Джимми ’Джекс’ Пинчак (Peter Wiggin), Нонсо Анози (Sergeant Dap)
Описание:
Действие происходит в 2135 году. Человечество пережило два вторжения инопланетной расы «жукеров», лишь чудом уцелев, и готовится к очередному вторжению.
Рейтинг:

MPAA: PG-13 - Детям до 13 лет просмотр не желателен
Премьера (мир): 24 октября 2013
Премьера (РФ): 31 октября 2013, «West»
Качество: UHD BDRip 2160p
Формат: MKV
Видео: HEVC, 18.1 Мбит/с, 3840x1600, 23.976 Кадр/с
Аудио#1: Russian: 48 kHz/16-bit, AC3 5.1, ~448.00 kbps avg |Дубляж,"TV 1000"|
Аудио#2: Ukrainian: 48 kHz/16-bit, AC3 5.1, ~384.00 kbps avg |Дубляж|
Аудио#3: Russian: 48 kHz/24-bit, DTS-HD 7.1, ~2046.00 kbps avg |Одноголосый закадровый, В.Горчаков|
Аудио#4: Russian: 48 kHz/24-bit, DTS-HD 7.1, ~2046.00 kbps avg |Одноголосый закадровый, А.Гаврилов|
Аудио#5: English: 48 kHz/16-bit, AC3 5.1, ~640.00 kbps avg | Original
Навигация по главам: есть
Фильм снят по мотивам романа Орсона Скотта Карда «Игра Эндера» (Ender`s Game, 1985).
В мае 2013 года группа сторонников ЛГБТ запустила кампанию против фильма в связи с выраженными в нем мнениями и действиями, предпринимаемыми автором романа Орсоном Скоттом Кардом, который также является продюсером фильма. Студия и несколько человек, непосредственно занимающихся созданием фильма, включая самого Карда, позже опубликовали заявление по этому поводу. Все, кроме самого Карда, сказали, что они не поддерживают взгляды Карда, и призвали людей в любом случае посмотреть фильм.
Для достижения эффекта невесомости в помещении для симуляции сражений были придуманы две установки. Первая — «рука-леденец», которая использовалась как противовес и давала полный диапазон движения. Вторая — «человеческий кран». По сути, он похож на первую установку, но с использованием воздушных шайб, за счет которых достигалось ощущение, что человек плавает в воздухе.
Работы над различными версиями киносценария по «Игре Эндера» шли приблизительно с начала 2000 годов. Последняя версия сценария, написанная самим автором романа, была закончена в начале 2009 года.
В корпусе морской пехоты США книга «Игра Эндера» присутствует в списке рекомендуемой офицерам литературы с пометкой, что в этой книге есть «уроки по методике обучения, лидерству и этике».
Для того чтобы самостоятельно выполнять акробатические упражнения на канате, актеры на протяжении месяца тренировались вместе с участниками Cirque du Soleil.
Продюсеры фильма консультировались с генеральным директором компании SpaceX Элоном Маском по вопросам технологий космических шаттлов будущего, изображенных в фильме.
Показанное в фильме помещение для симуляции сражений в диаметре охватывает три футбольных поля.
Эйса Баттерфилд, Хейли Стайнфелд и несколько других актеров, игравших кадетов военной школы, до начала съемок фильма посетили космический лагерь для подготовки к съемкам сцен с невесомостью.
Режиссер Гэвин Худ впервые прочитал книгу «Игра Эндера» в достаточно зрелом возрасте. На тот момент он уже отслужил в армии, будучи призванным в 17 лет.
Съемки фильма проходили в комплексе НАСА в Новом Орлеане, штат Луизиана.
Город, изображенный на агитационных плакатах, — это Гонконг.
Некоторый реквизит для фильма был создан при помощи 3D-принтеров, в том числе и модель корабля Mazer Rackham, которую можно заметить в жилище Эндера.
Компания Digital Domain, которая занималась спецэффектами этого фильма, предварительно сделала деморолик, демонстрирующий помещение для симуляции сражений, что позволило продюсерам без особых затруднений привлечь необходимые фильму инвестиции.
Каждое из укрытий от лазерного огня команды противника в сценах симуляции боев весило почти по 6000 кг.
С момента издания книги в 1985 году Орсон Скотт Кард получал множество предложений от голливудских киностудий по ее экранизации, но он постоянно им отказывал, чтобы сохранить целостность своего видения этой истории. Когда Кард стал соучредителем студии Fresco Pictures в 1996 году, он решил сам написать сценарий фильма, а также стать его продюсером.
В начале 2000-х Джейк Ллойд был одним из главных претендентов на роль Эндера. Так совпало, что в то же время Ллойд снялся для рекламной кампании по содействию библиотеке, и там он был изображен читающим книгу «Игра Эндера».
Complete name : D:\Cinema\Enders.Game.2013.2160p.UHD.BluRay.x265-SpaceHD13.mkv
Format : Matroska
Format version : Version 4 / Version 2
File size : 14.4 GiB
Duration : 1 h 53 min
Overall bit rate : 18.1 Mb/s
Movie name : Enders.Game.2013.2160p.UHD.BluRay.x265-SpaceHD13
Encoded date : UTC 2018-03-24 18:44:02
Writing application : mkvmerge v20.0.0 ('I Am The Sun') 64-bit
Writing library : libebml v1.3.5 + libmatroska v1.4.8
Cover : Yes
Attachments : cover.jpg.jpg

Video
ID : 1
Format : HEVC
Format/Info : High Efficiency Video Coding
Commercial name : HDR10
Format profile : Main 10@L5.1@High
Codec ID : V_MPEGH/ISO/HEVC
Duration : 1 h 53 min
Bit rate : 12.4 Mb/s
Width : 3 840 pixels
Height : 1 600 pixels
Display aspect ratio : 2.40:1
Frame rate mode : Constant
Frame rate : 23.976 (24000/1001) FPS
Color space : YUV
Chroma subsampling : 4:2:0 (Type 2)
Bit depth : 10 bits
Bits/(Pixel*Frame) : 0.084
Stream size : 9.88 GiB (69%)
Title : Enders.Game.2013.2160p.UHD.BluRay.x265-SpaceHD13
Writing library : x265 2.5+58-06979c042350:[Windows][GCC 6.2.1][64 bit] 10bit
Encoding settings : cpuid=1173503 / frame-threads=4 / numa-pools=16 / wpp / no-pmode / no-pme / no-psnr / no-ssim / log-level=2 / input-csp=1 / input-res=3840x1600 / interlace=0 / total-frames=163727 / level-idc=51 / high-tier=1 / uhd-bd=0 / ref=4 / no-allow-non-conformance / repeat-headers / annexb / aud / hrd / info / hash=0 / no-temporal-layers / no-open-gop / min-keyint=1 / keyint=24 / bframes=4 / b-adapt=2 / b-pyramid / bframe-bias=0 / rc-lookahead=25 / lookahead-slices=4 / scenecut=40 / no-intra-refresh / ctu=64 / min-cu-size=8 / rect / no-amp / max-tu-size=32 / tu-inter-depth=1 / tu-intra-depth=1 / limit-tu=0 / rdoq-level=2 / dynamic-rd=0.00 / no-ssim-rd / signhide / no-tskip / nr-intra=0 / nr-inter=0 / no-constrained-intra / no-strong-intra-smoothing / max-merge=3 / limit-refs=3 / limit-modes / me=3 / subme=3 / merange=57 / temporal-mvp / weightp / no-weightb / no-analyze-src-pics / deblock=-3:-3 / no-sao / no-sao-non-deblock / rd=4 / no-early-skip / rskip / no-fast-intra / no-tskip-fast / no-cu-lossless / no-b-intra / no-splitrd-skip / rdpenalty=0 / psy-rd=2.00 / psy-rdoq=1.00 / no-rd-refine / analysis-reuse-mode=0 / no-lossless / cbqpoffs=0 / crqpoffs=0 / rc=crf / crf=17.0 / qcomp=0.60 / qpstep=4 / stats-write=0 / stats-read=0 / vbv-maxrate=160000 / vbv-bufsize=160000 / vbv-init=0.9 / crf-max=0.0 / crf-min=0.0 / ipratio=1.40 / pbratio=1.30 / aq-mode=1 / aq-strength=1.00 / cutree / zone-count=0 / no-strict-cbr / qg-size=32 / no-rc-grain / qpmax=69 / qpmin=0 / no-const-vbv / sar=1 / overscan=0 / videoformat=5 / range=0 / colorprim=9 / transfer=16 / colormatrix=9 / chromaloc=1 / chromaloc-top=2 / chromaloc-bottom=2 / display-window=0 / master-display=G(13250,34500)B(7500,3000)R(34000,16000)WP(15635,16450)L(40000000,50) / max-cll=0,0 / min-luma=0 / max-luma=1023 / log2-max-poc-lsb=8 / vui-timing-info / vui-hrd-info / slices=1 / no-opt-qp-pps / no-opt-ref-list-length-pps / no-multi-pass-opt-rps / scenecut-bias=0.05 / no-opt-cu-delta-qp / no-aq-motion / hdr / hdr-opt / no-dhdr10-opt / analysis-reuse-level=5 / scale-factor=0 / refine-intra=0 / refine-inter=0 / refine-mv=0 / no-limit-sao / ctu-info=0 / no-lowpass-dct / refine-mv-type=0 / copy-pic=1
Default : Yes
Forced : No
Color range : Limited
Color primaries : BT.2020
Transfer characteristics : PQ
Matrix coefficients : BT.2020 non-constant
Mastering display color pri : BT.709
Mastering display luminance : min: 0.0050 cd/m2, max: 4000 cd/m2

Audio #1
ID : 2
Format : AC-3
Format/Info : Audio Coding 3
Codec ID : A_AC3
Duration : 1 h 53 min
Bit rate mode : Constant
Bit rate : 448 kb/s
Channel(s) : 6 channels
Channel positions : Front: L C R, Side: L R, LFE
Sampling rate : 48.0 kHz
Frame rate : 31.250 FPS (1536 SPF)
Bit depth : 16 bits
Compression mode : Lossy
Delay relative to video : 1 s 0 ms
Stream size : 365 MiB (2%)
Title : Enders.Game.2013.2160p.UHD.BluRay.x265-SpaceHD13.Дубляж
Language : Russian
Service kind : Complete Main
Default : Yes
Forced : No

Audio #2
ID : 3
Format : DTS
Format/Info : Digital Theater Systems
Format profile : HRA / Core
Codec ID : A_DTS
Duration : 1 h 53 min
Bit rate mode : Constant
Bit rate : 2 046 kb/s / 1 509 kb/s
Channel(s) : 8 channels / 6 channels
Channel positions : Front: L C R, Side: L R, Back: L R, LFE / Front: L C R, Side: L R, LFE
Sampling rate : 48.0 kHz
Frame rate : 93.750 FPS (512 SPF)
Bit depth : 24 bits
Compression mode : Lossy
Delay relative to video : 1 s 0 ms
Stream size : 1.63 GiB (11%)
Title : Enders.Game.2013.2160p.UHD.BluRay.x265-SpaceHD13.VO - А.Гаврилов
Language : Russian
Default : No
Forced : No

Audio #3
ID : 4
Format : DTS
Format/Info : Digital Theater Systems
Format profile : HRA / Core
Codec ID : A_DTS
Duration : 1 h 53 min
Bit rate mode : Constant
Bit rate : 2 046 kb/s / 1 509 kb/s
Channel(s) : 8 channels / 6 channels
Channel positions : Front: L C R, Side: L R, Back: L R, LFE / Front: L C R, Side: L R, LFE
Sampling rate : 48.0 kHz
Frame rate : 93.750 FPS (512 SPF)
Bit depth : 24 bits
Compression mode : Lossy
Delay relative to video : 1 s 0 ms
Stream size : 1.63 GiB (11%)
Title : Enders.Game.2013.2160p.UHD.BluRay.x265-SpaceHD13.VO - В.Горчаков
Language : Russian
Default : No
Forced : No

Audio #4
ID : 5
Format : AC-3
Format/Info : Audio Coding 3
Codec ID : A_AC3
Duration : 1 h 53 min
Bit rate mode : Constant
Bit rate : 384 kb/s
Channel(s) : 6 channels
Channel positions : Front: L C R, Side: L R, LFE
Sampling rate : 48.0 kHz
Frame rate : 31.250 FPS (1536 SPF)
Bit depth : 16 bits
Compression mode : Lossy
Delay relative to video : 1 s 0 ms
Stream size : 313 MiB (2%)
Title : Enders.Game.2013.2160p.UHD.BluRay.x265-SpaceHD13.Дубляж
Language : Ukrainian
Service kind : Complete Main
Default : No
Forced : No

Audio #5
ID : 6
Format : AC-3
Format/Info : Audio Coding 3
Codec ID : A_AC3
Duration : 1 h 53 min
Bit rate mode : Constant
Bit rate : 640 kb/s
Channel(s) : 6 channels
Channel positions : Front: L C R, Side: L R, LFE
Sampling rate : 48.0 kHz
Frame rate : 31.250 FPS (1536 SPF)
Bit depth : 16 bits
Compression mode : Lossy
Stream size : 522 MiB (4%)
Title : Enders.Game.2013.2160p.UHD.BluRay.x265-SpaceHD13
Language : English
Service kind : Complete Main
Default : No
Forced : No

Text #1
ID : 7
Format : PGS
Muxing mode : zlib
Codec ID : S_HDMV/PGS
Codec ID/Info : Picture based subtitle format used on BDs/HD-DVDs
Duration : 1 h 44 min
Bit rate : 37.1 kb/s
Count of elements : 2570
Stream size : 27.8 MiB (0%)
Title : Russian-PGS
Language : Russian
Default : Yes
Forced : No

Text #2
ID : 8
Format : PGS
Muxing mode : zlib
Codec ID : S_HDMV/PGS
Codec ID/Info : Picture based subtitle format used on BDs/HD-DVDs
Duration : 1 h 44 min
Bit rate : 34.9 kb/s
Count of elements : 2948
Stream size : 26.0 MiB (0%)
Title : English (white)
Language : English
Default : No
Forced : No

Text #3
ID : 9
Format : PGS
Muxing mode : zlib
Codec ID : S_HDMV/PGS
Codec ID/Info : Picture based subtitle format used on BDs/HD-DVDs
Duration : 1 h 44 min
Bit rate : 34.9 kb/s
Count of elements : 2948
Stream size : 26.0 MiB (0%)
Title : English (gray)
Language : English
Default : No
Forced : No

Text #4
ID : 10
Format : PGS
Muxing mode : zlib
Codec ID : S_HDMV/PGS
Codec ID/Info : Picture based subtitle format used on BDs/HD-DVDs
Duration : 1 h 44 min
Bit rate : 38.9 kb/s
Count of elements : 3292
Stream size : 29.1 MiB (0%)
Title : English SDH (white)
Language : English
Default : No
Forced : No

Text #5
ID : 11
Format : PGS
Muxing mode : zlib
Codec ID : S_HDMV/PGS
Codec ID/Info : Picture based subtitle format used on BDs/HD-DVDs
Duration : 1 h 44 min
Bit rate : 38.9 kb/s
Count of elements : 3292
Stream size : 29.1 MiB (0%)
Title : English SDH (gray)
Language : English
Default : No
Forced : No

Text #6
ID : 12
Format : PGS
Muxing mode : zlib
Codec ID : S_HDMV/PGS
Codec ID/Info : Picture based subtitle format used on BDs/HD-DVDs
Duration : 1 h 44 min
Bit rate : 34.9 kb/s
Count of elements : 2738
Stream size : 26.1 MiB (0%)
Title : Spanish (white)
Language : Spanish
Default : No
Forced : No

Text #7
ID : 13
Format : PGS
Muxing mode : zlib
Codec ID : S_HDMV/PGS
Codec ID/Info : Picture based subtitle format used on BDs/HD-DVDs
Duration : 1 h 44 min
Bit rate : 34.9 kb/s
Count of elements : 2738
Stream size : 26.1 MiB (0%)
Title : Spanish (gray)
Language : Spanish
Default : No
Forced : No

Menu
00:00:00.000 : en:00:00:00.000
00:06:11.580 : en:00:06:11.580
00:14:16.314 : en:00:14:16.314
00:19:07.146 : en:00:19:07.146
00:28:08.145 : en:00:28:08.145
00:33:23.668 : en:00:33:23.668
00:39:35.665 : en:00:39:35.665
00:45:44.408 : en:00:45:44.408
00:53:38.715 : en:00:53:38.715
01:02:16.608 : en:01:02:16.608
01:09:22.950 : en:01:09:22.950
01:15:17.888 : en:01:15:17.888
01:23:39.306 : en:01:23:39.306
01:30:55.825 : en:01:30:55.825
01:35:44.280 : en:01:35:44.280
01:41:13.859 : en:01:41:13.859





Скачать Игра Эндера через торрент http://i89.fastpic.ru/big/2017/0226/e7/fd5b231be8e848f0c35699a1ed5a57e7.png Скачать, смотреть онлайн Игра Эндера бесплантно в хорошем качестве Описание: Действие происходит в 2135 году. Человечество пережило два вторжения инопланетной расы «жукеров», лишь чудом уцелев, и готовится ... 9.1 10 9
Info! Золотая раздача, скачанное не засчитывается.
Торрент: Зарегистрирован [2018-04-22 02:59] · скачан: 74 раз
Статус: √ проверено
Размер: 14.38 GB
Как cкачать? Как скачать Игра Эндера через торрент | UTorrent

% Раздел Тема Автор DL S | L
Ultra HD (UHD: 2K, 4K, 8K) [ 53.46 GB ] Игра Эндера / Ender's Game | DUB+2xAVO | 2160p bober100 Скачать
1 | 0
Ultra HD (UHD: 2K, 4K, 8K) [ 24.69 GB ] Игра Эндера / Ender's Game | DUB+2xAVO | 2160p sheker187 Скачать
1 | 0

28-11-2019 20:33  


Отключить вcю реклaмy на сайте, в т.ч. и в плеере онлайн просмотра!

    Дорогой пользователь! Огромная просьба, поблагодарите релизера, оцените раздачу и оставьте свои комментарий, если Вы скачали Игра Эндера через торрент бесплатно!!
    Комментировать посты могут только пользователи прошедшие не сложную регистрацию
    Показать сообщения:    


    Игра Эндера через торрент
    Скачать бесплатно Игра Эндера
    Игра Эндера скачать торрент
    Игра Эндера смотреть онлайн
    Cкачать фильм Игра Эндера бесплатно
    Игра Эндера скачать торрент в хорошем качестве
    Игра Эндера смотреть онлайн бесплатно в хорошем качестве
    Вы не можете начинать темы
    Вы не можете отвечать на сообщения
    Вы не можете редактировать свои сообщения
    Вы не можете удалять свои сообщения
    Вы не можете голосовать в опросах
    Вы не можете прикреплять файлы к сообщениям
    Вы можете скачивать файлы
    Игра Эндера / Ender's Game [2013, Фантастика, боевик, приключения, экранизация, UHD BDRip 2160p] Дубляж + 2xAVO смотреть онлайн, скачать торрент picoco.icu