Достать ножи: Стеклянная луковица

MVO

Добыча

Дубляж

Уэнсдэй

1 сезон

Тор

Дубляж

13 клиническая

1 сезон

Жестокая ночь

MVO

Одни из нас

1 сезон

Deluxe

pack

Рекомендуем

30

Пиратка

ВАЖНО

ВАЖНО

Ghostwire

Пиратка

jed

RePack

nioh2

RePack

RDR2

RePack

NEED FOR SPEED™ PAYBACK

RePack

скачать торрент

Кинопоиск HD

Острые козырьки 6 сезон

6 сезон

FAR CRY 6

RePack

скачать торрент

Лицензия

скачать торрент

MVO

1

1 сезон

скачать торрент

1 сезон

скачать торрент

Лицензия

  

Бегущий в лабиринте: Лекарство от смерти / Maze Runner: The Death Cure (Уэс Болл) [2018, фантастика, боевик, триллер, UHD BDRemux 2160p] MVO [HDRezka] +Дубляж (rus, ukr) [Лицензия]

Бегущий в лабиринте: Лекарство от смерти через торрент piratbit.org

Размер: 57.8 GB | Добавлен: 4 года 8 мес. назад | Торрент скачан:160 раз
Смотреть онлайн | Скачать | Поддержите нас   

30-04-2018 01:00 Бегущий в лабиринте: Лекарство от смерти Скачать торрент  

Бегущий в лабиринте: Лекарство от смерти / Maze Runner: The Death Cure
Год выпуска: 2018
Страна: США
Жанр: фантастика, боевик, триллер
Продолжительность: 02:23:52
Перевод:

#1: Дублированный | Лицензия
#2: Профессиональный (многоголосый) | HDRezka

Субтитры: Русские (full), украинские (full), английские

Режиссер: Уэс Болл

rating

В ролях:

Дилан О Брайен, Ли Ги-хон, Кая Скоделарио, Томас Сэнгстер, Декстер Дарден, Уилл Поултер, Джейкоб Лофленд, Роза Салазар, Джанкарло Эспозито, Патришия Кларксон

Описание:

Томас возглавляет отряд выживших глейдеров, чтобы выполнить последнюю и самую опасную миссию. Ради спасения своих друзей они должны проникнуть в легендарный Последний город, смертоносный лабиринт, контролируемый ПОРОКом. Каждый, кто выживет там, наконец-то получит ответы на все вопросы, которые мучили глейдеров с момента попадания в лабиринт.

Качество: UHD BDRemux 2160p
Формат: MKV

Видео: HEVC, 41.5 Мбит/с, 3840x2160, 23.976 кадр/с
Аудио#1: |RUS| DTS, 48.0 kHz, 6 ch, 768 kb/s, CBR (Russian) | Дублированный, BD |
Аудио#2: |RUS| AC-3, 48.0 kHz, 6 ch, 448 kb/s, CBR (Russian) | Дублированный, BD |
Аудио#3: |UKR| AC-3, 48.0 kHz, 6 ch, 448 kb/s, CBR (Ukrainian) | Дублированный, BD |
Аудио#2: |RUS| AC-3, 48.0 kHz, 2 ch, 192 kb/s, CBR | Профессиональный многоголосый, HDRezka |
Аудио#3: |ENG| TrueHD+Atmos, 48.0 kHz, 8 ch, 7631 kb/s | Original |
Аудио#4: |ENG| DTS MA, 48.0 kHz, 8 ch, 5120 kb/s | Original |
Аудио#5: |ENG| AC-3, 48.0 kHz, 6 ch, 640 kb/s | Original, AC3 Core |
Аудио#6: |ENG| AC-3, 48.0 kHz, 6 ch, 448 kb/s | Audiodeion |
Аудио#7: |ENG| AC-3, 48.0 kHz, 2 ch, 224 kb/s | Commentary |
скриншот  скриншот  скриншот  скриншот  скриншот  скриншот  

Общее
Уникальный идентификатор : 325993588630458211311506999825686913415 (0xF54014D6C5B62433DCED2628919CE187)
Полное имя : Maze.Runner.The.Death.Cure.2018.Lic.UHD.BDRemux.2160p.HEVC.HDR.IVA(2xRUS.UKR.ENG).ExKinoRay.mkv
Формат : Matroska
Версия формата : Version 4 / Version 2
Размер файла : 57,8 Гбайт
Продолжительность : 2 ч. 23 м.
Режим общего битрейта : Переменный
Общий поток : 57,5 Мбит/сек
Название фильма : Бегущий в лабиринте: Лекарство от смерти / Maze Runner: The Death Cure ( 2018 ) UHD BDRemux | HDR, 4K | IVA(2xRUS.UKR.ENG) | ExKinoRay
Дата кодирования : UTC 2018-04-29 09:43:29
Программа кодирования : mkvmerge v22.0.0 ('At The End Of The World') 64-bit
Библиотека кодирования : libebml v1.3.5 + libmatroska v1.4.8
Обложка : Yes

Видео
Идентификатор : 1
Формат : HEVC
Формат/Информация : High Efficiency Video Coding
Коммерческое название : HDR10
Профиль формата : Main 10@L5.1@High
Идентификатор кодека : V_MPEGH/ISO/HEVC
Продолжительность : 2 ч. 23 м.
Битрейт : 41,5 Мбит/сек
Ширина : 3840 пикселей
Высота : 2160 пикселей
Соотношение сторон : 16:9
Режим частоты кадров : Постоянный
Частота кадров : 23,976 (24000/1001) кадра/сек
Цветовое пространство : YUV
Субдискретизация насыщенности : 4:2:0 (Type 2)
Битовая глубина : 10 бит
Бит/(Пиксели*Кадры) : 0.209
Размер потока : 41,7 Гбайт (72%)
Заголовок : Maze.Runner.The.Death.Cure.2018.UHD.BDRemux.2160p.HEVC.HDR
Язык : English
Default : Да
Forced : Нет
Цветовой диапазон : Limited
Основные цвета : BT.2020
Характеристики трансфера : PQ
Коэффициенты матрицы : BT.2020 non-constant
MasteringDisplay_Luminance : min: 0.0050 cd/m2, max: 1000 cd/m2

Аудио #1
Идентификатор : 2
Формат : DTS
Формат/Информация : Digital Theater Systems
Идентификатор кодека : A_DTS
Продолжительность : 2 ч. 23 м.
Вид битрейта : Постоянный
Битрейт : 768 Кбит/сек
Каналы : 6 каналов
Расположение каналов : Front: L C R, Side: L R, LFE
Частота : 48,0 КГц
Частота кадров : 93,750 кадра/сек (512 SPF)
Битовая глубина : 24 бит
Метод сжатия : С потерями
Размер потока : 790 Мбайт (1%)
Заголовок : | Дублированный |
Язык : Russian
Default : Да
Forced : Да

Аудио #2
Идентификатор : 3
Формат : AC-3
Формат/Информация : Audio Coding 3
Идентификатор кодека : A_AC3
Продолжительность : 2 ч. 23 м.
Вид битрейта : Постоянный
Битрейт : 448 Кбит/сек
Каналы : 6 каналов
Расположение каналов : Front: L C R, Side: L R, LFE
Частота : 48,0 КГц
Частота кадров : 31,250 кадров/сек (1536 SPF)
Битовая глубина : 16 бит
Метод сжатия : С потерями
Размер потока : 461 Мбайт (1%)
Заголовок : | Дублированный |
Язык : Russian
ServiceKind : Complete Main
Default : Нет
Forced : Нет

Аудио #3
Идентификатор : 4
Формат : AC-3
Формат/Информация : Audio Coding 3
Идентификатор кодека : A_AC3
Продолжительность : 2 ч. 23 м.
Вид битрейта : Постоянный
Битрейт : 448 Кбит/сек
Каналы : 6 каналов
Расположение каналов : Front: L C R, Side: L R, LFE
Частота : 48,0 КГц
Частота кадров : 31,250 кадров/сек (1536 SPF)
Битовая глубина : 16 бит
Метод сжатия : С потерями
Задержка видео : 14 мс.
Размер потока : 461 Мбайт (1%)
Заголовок : | Дублированный |
Язык : Ukrainian
ServiceKind : Complete Main
Default : Нет
Forced : Нет

Аудио #4
Идентификатор : 5
Формат : AC-3
Формат/Информация : Audio Coding 3
Идентификатор кодека : A_AC3
Продолжительность : 2 ч. 23 м.
Вид битрейта : Постоянный
Битрейт : 192 Кбит/сек
Каналы : 2 канала
Расположение каналов : Front: L R
Частота : 48,0 КГц
Частота кадров : 31,250 кадров/сек (1536 SPF)
Битовая глубина : 16 бит
Метод сжатия : С потерями
Размер потока : 198 Мбайт (0%)
Заголовок : | MVO, HDRezka |
Язык : Russian
ServiceKind : Complete Main
Default : Нет
Forced : Нет

Аудио #5
Идентификатор : 6
Формат : TrueHD
Профиль формата : TrueHD+Atmos / TrueHD
Идентификатор кодека : A_TRUEHD
Продолжительность : 2 ч. 23 м.
Вид битрейта : Переменный
Битрейт : 7631 Кбит/сек
Максимальный битрейт : 12,1 Мбит/сек
Каналы : Object Based / 8 каналов
Расположение каналов : Object Based / Front: L C R, Side: L R, Back: L R, LFE
Частота : / 48,0 КГц
Частота кадров : 1200,000 кадров/сек (40 SPF)
Метод сжатия : Без потерь
Размер потока : 7,67 Гбайт (13%)
Заголовок : | Original, Atmos |
Язык : English
Default : Нет
Forced : Нет

Аудио #6
Идентификатор : 7
Формат : DTS
Формат/Информация : Digital Theater Systems
Профиль формата : MA / Core
Идентификатор кодека : A_DTS
Продолжительность : 2 ч. 23 м.
Вид битрейта : Переменный / Постоянный
Битрейт : 5120 Кбит/сек / 1509 Кбит/сек
Каналы : 8 каналов / 6 каналов
Расположение каналов : Front: L C R, Side: L R, Back: L R, LFE / Front: L C R, Side: L R, LFE
Частота : 48,0 КГц
Частота кадров : 93,750 кадра/сек (512 SPF)
Битовая глубина : 24 бит
Метод сжатия : Без потерь / Lossy
Размер потока : 5,15 Гбайт (9%)
Заголовок : | Original, DTS-HD MA |
Язык : English
Default : Нет
Forced : Нет

Аудио #7
Идентификатор : 8
Формат : AC-3
Формат/Информация : Audio Coding 3
Идентификатор кодека : A_AC3
Продолжительность : 2 ч. 23 м.
Вид битрейта : Постоянный
Битрейт : 640 Кбит/сек
Каналы : 6 каналов
Расположение каналов : Front: L C R, Side: L R, LFE
Частота : 48,0 КГц
Частота кадров : 31,250 кадров/сек (1536 SPF)
Битовая глубина : 16 бит
Метод сжатия : С потерями
Размер потока : 659 Мбайт (1%)
Заголовок : | Original, AC3 Core |
Язык : English
ServiceKind : Complete Main
Default : Нет
Forced : Нет

Аудио #8
Идентификатор : 9
Формат : AC-3
Формат/Информация : Audio Coding 3
Идентификатор кодека : A_AC3
Продолжительность : 2 ч. 23 м.
Вид битрейта : Постоянный
Битрейт : 448 Кбит/сек
Каналы : 6 каналов
Расположение каналов : Front: L C R, Side: L R, LFE
Частота : 48,0 КГц
Частота кадров : 31,250 кадров/сек (1536 SPF)
Битовая глубина : 16 бит
Метод сжатия : С потерями
Задержка видео : 14 мс.
Размер потока : 461 Мбайт (1%)
Заголовок : | Audiodeion |
Язык : English
ServiceKind : Complete Main
Default : Нет
Forced : Нет

Аудио #9
Идентификатор : 10
Формат : AC-3
Формат/Информация : Audio Coding 3
Идентификатор кодека : A_AC3
Продолжительность : 2 ч. 23 м.
Вид битрейта : Постоянный
Битрейт : 224 Кбит/сек
Каналы : 2 канала
Расположение каналов : Front: L R
Частота : 48,0 КГц
Частота кадров : 31,250 кадров/сек (1536 SPF)
Битовая глубина : 16 бит
Метод сжатия : С потерями
Задержка видео : 14 мс.
Размер потока : 231 Мбайт (0%)
Заголовок : | Commentary |
Язык : English
ServiceKind : Complete Main
Default : Нет
Forced : Нет

Текст #1
Идентификатор : 11
Формат : UTF-8
Идентификатор кодека : S_TEXT/UTF8
Идентификатор кодека/Информация : UTF-8 Plain Text
Продолжительность : 2 ч. 22 м.
Битрейт : 55 бит/сек
ElementCount : 1389
Размер потока : 57,6 Кбайт (0%)
Заголовок : Full
Язык : Russian
Default : Нет
Forced : Нет

Текст #2
Идентификатор : 12
Формат : UTF-8
Идентификатор кодека : S_TEXT/UTF8
Идентификатор кодека/Информация : UTF-8 Plain Text
Продолжительность : 2 ч. 20 м.
Битрейт : 49 бит/сек
ElementCount : 1397
Размер потока : 50,4 Кбайт (0%)
Заголовок : Full
Язык : Ukrainian
Default : Нет
Forced : Нет

Текст #3
Идентификатор : 13
Формат : UTF-8
Идентификатор кодека : S_TEXT/UTF8
Идентификатор кодека/Информация : UTF-8 Plain Text
Продолжительность : 2 ч. 15 м.
Битрейт : 35 бит/сек
ElementCount : 1475
Размер потока : 35,5 Кбайт (0%)
Заголовок : Full
Язык : English
Default : Нет
Forced : Нет

Текст #4
Идентификатор : 14
Формат : UTF-8
Идентификатор кодека : S_TEXT/UTF8
Идентификатор кодека/Информация : UTF-8 Plain Text
Продолжительность : 2 ч. 15 м.
Битрейт : 40 бит/сек
ElementCount : 1688
Размер потока : 40,6 Кбайт (0%)
Заголовок : SDH
Язык : English
Default : Нет
Forced : Нет

Меню
00:00:00.000 : en:Chapter 1
00:11:31.607 : en:Chapter 2
00:15:59.750 : en:Chapter 3
00:20:08.457 : en:Chapter 4
00:24:34.890 : en:Chapter 5
00:30:40.547 : en:Chapter 6
00:36:47.330 : en:Chapter 7
00:43:15.342 : en:Chapter 8
00:48:06.341 : en:Chapter 9
00:55:17.397 : en:Chapter 10
01:02:42.925 : en:Chapter 11
01:07:14.488 : en:Chapter 12
01:11:56.061 : en:Chapter 13
01:15:48.210 : en:Chapter 14
01:23:20.328 : en:Chapter 15
01:29:45.421 : en:Chapter 16
01:34:00.593 : en:Chapter 17
01:40:09.795 : en:Chapter 18
01:43:33.081 : en:Chapter 19
01:53:38.645 : en:Chapter 20
01:59:43.885 : en:Chapter 21
02:04:49.398 : en:Chapter 22
02:10:03.086 : en:Chapter 23
02:18:03.858 : en:Chapter 24




Скачать Бегущий в лабиринте: Лекарство от смерти через торрент https://pic1.kartinco.top/images/11/h9wjm.jpg Скачать, смотреть онлайн Бегущий в лабиринте: Лекарство от смерти бесплантно в хорошем качестве Описание: Томас возглавляет отряд выживших глейдеров, чтобы выполнить последнюю и самую опасную миссию. Ради спасения своих друзей они ... 10 10 8
Info! Золотая раздача, скачанное не засчитывается.
Торрент: Зарегистрирован [2018-04-30 01:00] · скачан: 160 раз
Статус: √ проверено
Размер: 57.8 GB
Как cкачать? Как скачать Бегущий в лабиринте: Лекарство от смерти через торрент | UTorrent

% Раздел Тема Автор DL S | L
Фильмы [HD 720p, 1080p] (Хороший звук DUB, MVO) [ 4.84 GB ] Бегущий в лабиринте: Лекарство от смерти / Maze Runner: The Death Cure | Лицензия | 1080p, HEVC (10bit Мичман37 Скачать
1 | 0
Фильмы 2018 [DVDrip, WEB-DLRip, HDrip] (DUB, MVO) [ 2.18 GB ] Бегущий в лабиринте: Лекарство от смерти / Maze Runner: The Death Cure | Лицензия | BDRip Twi7ter Скачать
1 | 0
Фильмы (Blu-ray, BD-Remux, HDDVD) [ 44.23 GB ] Бегущий в лабиринте: Лекарство от смерти / Maze Runner: The Death Cure | Лицензия | 1080p bober100 Скачать
1 | 0
Ultra HD (UHD: 2K, 4K, 8K) [ 28.56 GB ] Бегущий в лабиринте: Лекарство от смерти / Maze Runner: The Death Cure | DUB | 2160p sheker187 Скачать
1 | 0
Фильмы [HD 720p, 1080p] (Хороший звук DUB, MVO) [ 7.02 GB ] Бегущий в лабиринте: Лекарство от смерти / Maze Runner: The Death Cure | Лицензия | 720p bober100 Скачать
1 | 0
Фильмы 2018 [DVDrip, WEB-DLRip, HDrip] (DUB, MVO) [ 2.9 GB ] Бегущий в лабиринте: Лекарство от смерти / Maze Runner: The Death Cure | Лицензия | BDRip-AVC bober100 Скачать
1 | 0
Фильмы (Blu-ray, BD-Remux, HDDVD) [ 28.08 GB ] Бегущий в лабиринте: Лекарство от смерти / Maze Runner: The Death Cure | Лицензия | BD Remux 1080p bober100 Скачать
1 | 0

28-11-2019 20:33  


Отключить вcю реклaмy на сайте, в т.ч. и в плеере онлайн просмотра!

    Дорогой пользователь! Огромная просьба, поблагодарите релизера, оцените раздачу и оставьте свои комментарий, если Вы скачали Бегущий в лабиринте: Лекарство от смерти через торрент бесплатно!!
    Комментировать посты могут только пользователи прошедшие не сложную регистрацию
    Показать сообщения:    


    Бегущий в лабиринте: Лекарство от смерти через торрент
    Скачать бесплатно Бегущий в лабиринте: Лекарство от смерти
    Бегущий в лабиринте: Лекарство от смерти скачать торрент
    Бегущий в лабиринте: Лекарство от смерти смотреть онлайн
    Cкачать фильм Бегущий в лабиринте: Лекарство от смерти бесплатно
    Бегущий в лабиринте: Лекарство от смерти скачать торрент в хорошем качестве
    Бегущий в лабиринте: Лекарство от смерти смотреть онлайн бесплатно в хорошем качестве
    Вы не можете начинать темы
    Вы не можете отвечать на сообщения
    Вы не можете редактировать свои сообщения
    Вы не можете удалять свои сообщения
    Вы не можете голосовать в опросах
    Вы не можете прикреплять файлы к сообщениям
    Вы можете скачивать файлы
    Бегущий в лабиринте: Лекарство от смерти / Maze Runner: The Death Cure [2018, фантастика, боевик, триллер, UHD BDRemux 2160p] MVO [HDRezka] +Дубляж [Лицензия] смотреть онлайн, скачать торрент picoco.icu