1 сезон

3 сезон

iTunes

1

iTunes

MVO

iTunes

13

1 сезон

RePack

30

Deluxe

pack

Лицензия

ВАЖНО

ИГРА 18+

pack

RePack

MK11

RePack

jed

RePack

fifa19

RePack

RDR2

RePack

NEED FOR SPEED™ PAYBACK

4 сезон

9 сезон

Бесстыжие 9 сезон

Все сериалы

все сериалы на PB.wtf

RePack

FAR CRY 5

Anonymous, доброй ночи, мы катастрофически не успеваем собрать деньги на оплату серверов, помогите нам пожалуйста 5,10,15р., для нас важна любая помощь . В качестве благодарности мы отключим Вам всю рекламу на сайте (укажите свой ник в строку Ваше имя)!

×
  
Magnet ссылка

Король Гаваны / Un rey en La Habana (Алексис Валдес) [2005 г., Комедия, DVDRip-AVC, Профессиональный (двухголосый)] от ExKinoRay piratbit.org

Король Гаваны через торрент piratbit.org

Размер: 2.45 GB | Добавлен: 3 года 2 мес. назад | Торрент скачан:9 раз
Скачать  

01-05-2018 05:40 Король Гаваны Скачать торрент  

Король Гаваны / Un rey en La Habana
Год выпуска: 2005
Страна: Испания
Жанр: Комедия
Продолжительность: 01:35:29
Перевод: Профессиональный (двухголосый)
Субтитры: Русские

Режиссер: Алексис Валдес

Премьера в мире: 25 апреля 2005

rating

В ролях: Мария Изабель Диаз, Кармен Мачи, Хосе Алиас, Мануэль Манкуинья, Морайма Олбера, Иделфонсо Тамайо, Педро Рентериа, Хосе Альба, Алисия Бустаманте, Мануэль Де Блас, Антонио Дечент, Цейтель Родригес, Хосе Теллез, Алексис Валдес

Описание: Дон Артуро, богатый испанский бизнесмен, прилетает в Гавану, чтобы жениться на очаровательной кубинской девушке Йоли. Однако накануне свадьбы Артуро, готовясь провести ночь любви со своей невестой, от переизбытка чувств и большой дозы сексуального стимулятора умирает. Чтобы избежать скандала и не упустить денег незадачливого жениха, эксцентричная семейка Йоли придумывает хитроумный план — надо скрыть факт смерти Дона Артуро и найти ему двойника на замену. Выбор падает на бедного актера Папито (тоже влюбленного в Йоли!).
Теперь Папито, загримированному под Артуро, предстоит свадьба с Йоли и поездка в Испанию, где он должен проявить свою смекалку и находчивость, чтобы завладеть миллионами Дона Артуро!

Качество: DVDRip-AVC
Формат: MKV
Видео кодек: MPEG4
Аудио кодек: AC3
Видео: MPEG-4 AVC, 2900 Кбит/с, 710x416@756x416, 25 кадров/сек
Аудио#1: Русский (AC3, 6 ch, 384 Кбит/с, 48 КГц)
Аудио#2: Испанский (AC3, 6 ch, 384 Кбит/с, 48 КГц)
Релиз от:




raw [info]: 710x416p 16:15 @ 25/1 fps (cfr)
x264 [info]: using SAR=16/15
x264 [info]: using cpu capabilities: MMX2 SSE2Fast LZCNT
x264 [info]: profile High, level 4.1
x264 [info]: frame I:1114 Avg QP:16.16 size: 56751
x264 [info]: frame P:29357 Avg QP:18.42 size: 28105
x264 [info]: frame B:112765 Avg QP:20.42 size: 10542
x264 [info]: consecutive B-frames: 1.5% 2.0% 7.9% 15.0% 10.5% 57.3% 3.2% 0.9% 0.6% 0.3% 0.3% 0.6% 0.0% 0.0% 0.0% 0.0% 0.0%
-----
Общее
Уникальный идентификатор : 248834829202008184077521198496073083521 (0xBB33D849D64525FA95963AA803FB6A81)
Полное имя : D:\ExKinoRay\Korol.Habana.2005.DVDRip-AVC.ExKinoRay.mkv
Формат : Matroska
Версия формата : Version 2
Размер файла : 2,45 Гбайт
Продолжительность : 1 ч. 35 м.
Общий поток : 3670 Кбит/сек
Дата кодирования : UTC 2018-05-01 03:22:00
Программа кодирования : mkvmerge v7.8.0 ('River Man') 32bit built on Apr 3 2015 12:11:22
Библиотека кодирования : libebml v1.3.1 + libmatroska v1.4.2

Видео
Идентификатор : 1
Формат : AVC
Формат/Информация : Advanced Video Codec
Профиль формата : High@L4.1
Параметр CABAC формата : Да
Параметр ReFrames формата : 14 кадров
Идентификатор кодека : V_MPEG4/ISO/AVC
Продолжительность : 1 ч. 35 м.
Битрейт : 2900 Кбит/сек
Ширина : 710 пикселей
Высота : 416 пикселей
Соотношение сторон : 1,85:1
Соотношение сторон в оригинале : 1,85:1
Режим частоты кадров : Постоянный
Частота кадров : 25,000 кадров/сек
Цветовое пространство : YUV
Субдискретизация насыщенности : 4:2:0
Битовая глубина : 8 бит
Тип развёртки : Прогрессивная
Бит/(Пиксели*Кадры) : 0.393
Размер потока : 1,89 Гбайт (77%)
Библиотека кодирования : x264 core 148 r2638 7599210
Настройки программы : cabac=1 / ref=14 / deblock=1:-2:-2 / analyse=0x3:0x133 / me=umh / subme=10 / psy=1 / psy_rd=1.05:0.15 / mixed_ref=1 / me_range=32 / chroma_me=1 / trellis=2 / 8x8dct=1 / cqm=0 / deadzone=21,11 / fast_pskip=0 / chroma_qp_offset=-3 / threads=4 / lookahead_threads=1 / sliced_threads=0 / nr=0 / decimate=0 / interlaced=0 / bluray_compat=0 / constrained_intra=0 / bframes=16 / b_pyramid=2 / b_adapt=2 / b_bias=0 / direct=3 / weightb=1 / open_gop=0 / weightp=2 / keyint=250 / keyint_min=25 / scenecut=40 / intra_refresh=0 / rc=2pass / mbtree=0 / bitrate=2900 / ratetol=1.0 / qcomp=0.60 / qpmin=0 / qpmax=69 / qpstep=4 / cplxblur=20.0 / qblur=0.5 / ip_ratio=1.40 / pb_ratio=1.30 / aq=1:1.00
Язык : English
Default : Да
Forced : Нет
Цветовой диапазон : Limited
Основные цвета : BT.601 NTSC
Характеристики трансфера : BT.601
Коэффициенты матрицы : BT.601

Аудио #1
Идентификатор : 2
Формат : AC-3
Формат/Информация : Audio Coding 3
Расширение режима : CM (complete main)
Параметр Endianness формата : Big
Идентификатор кодека : A_AC3
Продолжительность : 1 ч. 35 м.
Вид битрейта : Постоянный
Битрейт : 384 Кбит/сек
Каналы : 6 каналов
Расположение каналов : Front: L C R, Side: L R, LFE
Частота : 48,0 КГц
Частота кадров : 31,250 кадров/сек (1536 spf)
Метод сжатия : С потерями
Размер потока : 262 Мбайт (10%)
Язык : Russian
Default : Да
Forced : Нет

Аудио #2
Идентификатор : 3
Формат : AC-3
Формат/Информация : Audio Coding 3
Расширение режима : CM (complete main)
Параметр Endianness формата : Big
Идентификатор кодека : A_AC3
Продолжительность : 1 ч. 35 м.
Вид битрейта : Постоянный
Битрейт : 384 Кбит/сек
Каналы : 6 каналов
Расположение каналов : Front: L C R, Side: L R, LFE
Частота : 48,0 КГц
Частота кадров : 31,250 кадров/сек (1536 spf)
Метод сжатия : С потерями
Размер потока : 262 Мбайт (10%)
Язык : Spanish
Default : Нет
Forced : Нет

Текст
Идентификатор : 4
Формат : UTF-8
Идентификатор кодека : S_TEXT/UTF8
Идентификатор кодека/Информация : UTF-8 Plain Text
Язык : Russian
Default : Да
Forced : Нет

piratbit.org



Скачать Король Гаваны через торрент http://d.radikal.ru/d39/1805/48/e24706c65afc.jpg Скачать фильм Король Гаваны через торрент бесплантно в хорошем качестве Описание: Дон Артуро, богатый испанский бизнесмен, прилетает в Гавану, чтобы жениться на очаровательной кубинской девушке Йоли. Однако ... 10 10 1
Info! Золотая раздача, скачанное не засчитывается.
Торрент: Зарегистрирован [2018-05-01 05:40] · скачан: 9 раз
Статус: √ проверено
Размер: 2.45 GB
Как cкачать? Как скачать Король Гаваны через торрент | UTorrent

28-11-2019 20:33  

Отключить всю рекламу на сайте

01-05-2018 08:26 Король Гаваны Скачать торрент  

Топик был перенесен из форума Оформление раздач (Кино, Видео и ТВ) в форум Фильмы 2001-2005


bober100piratbit.org



    Дорогой пользователь! Огромная просьба, поблагодарите релизера, оцените раздачу и оставьте свои комментарий, если Вы скачали Король Гаваны через торрент бесплатно! Внесите свою лепту в развитие PiratBit!
    Комментировать посты могут только пользователи прошедшие не сложную регистрацию
    Показать сообщения:    

    Король Гаваны через торрент
    Скачать бесплатно Король Гаваны
    Король Гаваны скачать торрент
    Король Гаваны смотреть онлайн
    Cкачать фильм Король Гаваны бесплатно
    Король Гаваны скачать торрент в хорошем качестве
    Король Гаваны смотреть онлайн бесплатно в хорошем качестве


    Вы не можете начинать темы
    Вы не можете отвечать на сообщения
    Вы не можете редактировать свои сообщения
    Вы не можете удалять свои сообщения
    Вы не можете голосовать в опросах
    Вы не можете прикреплять файлы к сообщениям
    Вы можете скачивать файлы