1 сезон

3 сезон

iTunes

1

iTunes

DUB Netflix

iTunes

13

1 сезон

RePack

30

Deluxe

pack

Легкие деньги

ВАЖНО

ИГРА 18+

pack

RePack

MK11

RePack

jed

RePack

fifa19

RePack

RDR2

RePack

NEED FOR SPEED™ PAYBACK

4 сезон

9 сезон

Бесстыжие 9 сезон

Все сериалы

все сериалы на PB.wtf

RePack

FAR CRY 5

Anonymous, добрый день, мы не успеваем до 1 числа собрать деньги на оплату серверов, помогите нам пожалуйста в это трудное время. В качестве благодарности мы отключим Вам всю рекламу на сайте (укажите свой ник в строку Ваше имя)!

×
  
Magnet ссылка

Полицейский с Рублёвки / Сезон: 1 / Серии: 1-8 из 8 (Илья Куликов) [2016, Комедия, криминал, драма, HDTV 1080i] piratbit.org

Полицейский с Рублёвки через торрент piratbit.org

Размер: 21.6 GB | Добавлен: 3 года 1 мес. назад | Торрент скачан:711 раз
Скачать  

02-05-2018 09:15 Полицейский с Рублёвки Скачать торрент  

Полицейский с Рублёвки
Год выпуска: 2016
Страна: Россия
Жанр: Комедия, криминал, драма
Продолжительность: ~ 00:50:00
Перевод: Не требуется
Субтитры: отсутствуют

Режиссер: Илья Куликов

rating

В ролях:

Александр Петров, Александра Бортич, Сергей Бурунов, Татьяна Бабенкова, Софья Каштанова, Роман Попов, Ростислав Гулбис, Анастасия Стежко, Лилия Лаврова, Виктория Тарасова, Анна Котова, Сергей Калашников, Сергей Штатнов, Владимир Рузанов

Описание:

«Полицейский с Рублёвки» — это история о Грише Измайлове, полицейском, который призван охранять покой и порядок в самом элитном районе России, где живут невероятно богатые люди. Ему приходится расследовать дела, в которые впутываются жители Рублевки, и делает он это нередко превышая свои полномочия. Грише около 30 лет, он красив, одинок, богат, циничен, азартен и ко всему относится с изрядной долей черного юмора. Он заботится о младшей сестре-хулиганке, которую вынужден постоянно вытаскивать из неприятностей. Гриша не прикладывая усилий умеет нравиться женщинам и регулярно издевается над своим начальником Яковлевым.

Качество: HDTV 1080i
Формат: MPEG-TS

Видео: MPEG-4 AVC, ~ 7900 Кбит/с, 1920x1080, 25 Кадр/с
Аудио: Русский (MP2, 2 ch, 192 Кбит/с)
скриншот   скриншот   скриншот  

Общее
Идентификатор : 1 (0x1)
Полное имя : D:\Policejskij.s.Rublyovki.2016.HDTV.1080i\Policejskij.s.Rublyovki.01.2016.HDTV.1080i.ts
Формат : MPEG-TS
Размер файла : 2,89 Гбайт
Продолжительность : 48 м. 55 с.
Режим общего битрейта : Переменный
Общий поток : 8469 Кбит/сек

Видео
Идентификатор : 2741 (0xAB5)
Идентификатор меню : 1257 (0x4E9)
Формат : AVC
Формат/Информация : Advanced Video Codec
Профиль формата : High@L4
Параметр CABAC формата : Да
Параметр RefFrames формата : 4 кадра
Идентификатор кодека : 27
Продолжительность : 48 м. 55 с.
Битрейт : 7857 Кбит/сек
Ширина : 1920 пикселей
Высота : 1080 пикселей
Соотношение сторон : 16:9
Частота кадров : 25,000 кадров/сек
Цветовое пространство : YUV
Субдискретизация насыщенности : 4:2:0
Битовая глубина : 8 бит
Тип развёртки : MBAFF
Метод сохранения типа развёртки : Чередующиеся поля
Порядок развёртки : Верхнее поле первое
Бит/(Пиксели*Кадры) : 0.152
Размер потока : 2,68 Гбайт (93%)

Аудио
Идентификатор : 2742 (0xAB6)
Идентификатор меню : 1257 (0x4E9)
Формат : MPEG Audio
Версия формата : Version 1
Профиль формата : Layer 2
Режим : Joint stereo
Расширение режима : Intensity Stereo + MS Stereo
Идентификатор кодека : 3
Продолжительность : 48 м. 55 с.
Вид битрейта : Постоянный
Битрейт : 192 Кбит/сек
Каналы : 2 канала
Частота : 48,0 КГц
Метод сжатия : С потерями
Задержка видео : -160 мс.
Размер потока : 67,2 Мбайт (2%)
Язык : Russian

piratbit.org



Скачать Полицейский с Рублёвки через торрент http://img10.lostpic.net/2016/03/21/5df3e9454b4ffd7cf8b31b0e7032dc60.jpg Скачать фильм Полицейский с Рублёвки через торрент бесплантно в хорошем качестве Описание: «Полицейский с Рублёвки» — это история о Грише Измайлове, полицейском, который призван охранять покой и порядок в самом элитном ... 9.4 10 15
Info! Золотая раздача, скачанное не засчитывается.
Торрент: Зарегистрирован [2018-05-02 09:15] · скачан: 711 раз
Статус: √ проверено
Размер: 21.6 GB
Как cкачать? Как скачать Полицейский с Рублёвки через торрент | UTorrent

% Раздел Тема Автор DL S | L
TNT serials [ 2.93 GB ] Полицейский с Рублевки. Полицейская академия / Сезон: 5 / Серии: 1-8 из 8 [2019 WEB-DLRip-AVC] bober100 Скачать
3 | 0
TNT serials [ 5.47 GB ] Полицейский с Рублёвки. Полицейская академия / Сезон: 5 / Серии: 1-8 из 8 [2019 HDTV 1080i] bober100 Скачать
3 | 0
TNT serials [ 9.75 GB ] Полицейский с Рублёвки / Сезон: 4 / Серии: 1-8 из 8 [2018 WEB-DL 720p] bober100 Скачать
1 | 0
TNT serials [ 6.93 GB ] Полицейский с Рублевки. Полицейская академия / Сезон: 5 / Серии: 1-8 из 8 [2019 WEB-DL 1080p] bober100 Скачать
1 | 0
TNT serials [ 2.54 GB ] Полицейский с Рублёвки. Полицейская академия / Сезон: 5 / Серии: 1-8 из 8 [2019 WEB-DLRip] bober100 Скачать
2 | 0
TNT serials [ 4.93 GB ] Полицейский с Рублевки. Полицейская академия / Сезон: 5 / Серии: 1-8 из 8 [2019 WEB-DL 720p] bober100 Скачать
1 | 0
TNT serials [ 13.67 GB ] Полицейский с Рублёвки / Сезон: 4 / Серии: 1-8 из 8 [2018 WEB-DL 1080p] bober100 Скачать
2 | 0

28-11-2019 20:33  

Отключить всю рекламу на сайте

01-05-2021 17:37 Полицейский с Рублёвки Скачать торрент  

Подскажите он без цензуры? Как-то помнится смотрел на рутубе без цензуры, сейчас же найти нереально.piratbit.org



    Дорогой пользователь! Огромная просьба, поблагодарите релизера, оцените раздачу и оставьте свои комментарий, если Вы скачали Полицейский с Рублёвки через торрент бесплатно! Внесите свою лепту в развитие PiratBit!
    Комментировать посты могут только пользователи прошедшие не сложную регистрацию
    Показать сообщения:    

    Полицейский с Рублёвки через торрент
    Скачать бесплатно Полицейский с Рублёвки
    Полицейский с Рублёвки скачать торрент
    Полицейский с Рублёвки смотреть онлайн
    Cкачать фильм Полицейский с Рублёвки бесплатно
    Полицейский с Рублёвки скачать торрент в хорошем качестве
    Полицейский с Рублёвки смотреть онлайн бесплатно в хорошем качестве


    Вы не можете начинать темы
    Вы не можете отвечать на сообщения
    Вы не можете редактировать свои сообщения
    Вы не можете удалять свои сообщения
    Вы не можете голосовать в опросах
    Вы не можете прикреплять файлы к сообщениям
    Вы можете скачивать файлы