Достать ножи: Стеклянная луковица

MVO

Добыча

Дубляж

Уэнсдэй

1 сезон

Тор

Дубляж

13 клиническая

1 сезон

Жестокая ночь

MVO

Одни из нас

1 сезон

Deluxe

pack

Рекомендуем

30

Пиратка

ВАЖНО

ВАЖНО

Ghostwire

Пиратка

jed

RePack

nioh2

RePack

RDR2

RePack

NEED FOR SPEED™ PAYBACK

RePack

скачать торрент

Кинопоиск HD

Острые козырьки 6 сезон

6 сезон

FAR CRY 6

RePack

скачать торрент

Лицензия

скачать торрент

MVO

1

1 сезон

скачать торрент

1 сезон

скачать торрент

Лицензия

  

Кролик Питер / Peter Rabbit (Уилл Глак) [2018, фэнтези, комедия, приключения, семейный, UHD BDRemux 2160p] Дубляж (rus, ukr) [Лицензия]

Кролик Питер через торрент piratbit.org

Размер: 39.86 GB | Добавлен: 4 года 9 мес. назад | Торрент скачан:69 раз
Смотреть онлайн | Скачать | Поддержите нас   

04-05-2018 20:10 Кролик Питер Скачать торрент  

Кролик Питер / Peter Rabbit
Год выпуска: 2018
Страна: Великобритания, Австралия, США
Жанр: фэнтези, комедия, приключения, семейный
Продолжительность: 01:34:42
Перевод: Дублированный | Лицензия
Субтитры: Русские, украинские, английские

Режиссер: Уилл Глак

rating
В ролях:

Джеймс Корден, Донал Глисон, Сиа, Колин Муди, Сэм Нил, Марго Робби, Элизабет Дебики, Дэйзи Ридли, Роуз Бирн

Описание:

Фильм о приключениях маленького и непоседливого крольчонка по имени Питер, который хочет пробраться в огород к грозному фермеру и вдоволь полакомиться там фруктами и овощами.

Качество: UHD BDRemux 2160p
Формат: MKV

Видео: HEVC, 50114 Кбит/с, 3840x2160, 23.976 кадр/с 23.976 кадр/с
Аудио#1: 48 kHz, AC3, 5.1, 640 Kbps | RUS |
Аудио#2: AC-3, 48.0 kHz, 6 ch, 640 kb/s, CBR (Ukrainian) | Дублированный, Лицензия |
Аудио#3: TrueHD TrueHD+Atmos / TrueHD, / 48.0 kHz, Object Based / 8 ch, 4 603 kb/s, VBR (English) | Original |
Аудио#4: DTS MA / Core, 48.0 kHz, 6 ch, 2 222 kb/s / 1 509 kb/s, VBR / CBR (English) | Original |
Аудио#5: AC-3, 48.0 kHz, 6 ch, 640 kb/s, CBR (English) | Original |
Аудио#6: AC-3, 48.0 kHz, 6 ch, 640 kb/s, CBR (English) | Audiodeion |
Аудио#7: AC-3, 48.0 kHz, 6 ch, 640 kb/s, CBR (English) | Audiodeion |


Релиз от:
скриншот  скриншот  скриншот  скриншот  скриншот  скриншот  

Общее
Уникальный идентификатор : 33240676030908537231672241712700184245 (0x1901EBDC8ADBAB241DDDA36DED8DD6B5)
Полное имя : Peter.Rabbit.2018.Lic.2160p.BDREMUX.HEVC.HDR.IVA(RUS.UKR.ENG).ExKinoRay.mkv
Формат : Matroska
Версия формата : Version 4 / Version 2
Размер файла : 39,9 Гбайт
Продолжительность : 1 ч. 34 м.
Режим общего битрейта : Переменный
Общий поток : 60,3 Мбит/сек
Название фильма : Кролик Питер / Peter Rabbit ( 2018 ) UHD BDRemux | HDR, 4K | IVA(RUS.UKR.ENG) | ExKinoRay
Дата кодирования : UTC 2018-05-04 16:15:47
Программа кодирования : mkvmerge v23.0.0 ('The Bride Said No') 64-bit
Библиотека кодирования : libebml v1.3.6 + libmatroska v1.4.9
Обложка : Yes

Видео
Идентификатор : 1
Формат : HEVC
Формат/Информация : High Efficiency Video Coding
Коммерческое название : HDR10
Профиль формата : Main 10@L5.1@High
Идентификатор кодека : V_MPEGH/ISO/HEVC
Продолжительность : 1 ч. 34 м.
Битрейт : 50,2 Мбит/сек
Ширина : 3840 пикселей
Высота : 2160 пикселей
Соотношение сторон : 16:9
Режим частоты кадров : Постоянный
Частота кадров : 23,976 (24000/1001) кадра/сек
Цветовое пространство : YUV
Субдискретизация насыщенности : 4:2:0 (Type 2)
Битовая глубина : 10 бит
Бит/(Пиксели*Кадры) : 0.252
Размер потока : 33,2 Гбайт (83%)
Заголовок : Peter.Rabbit.2018.2160p.BluRay.Remux.HEVC
Язык : English
Default : Да
Forced : Нет
Цветовой диапазон : Limited
Основные цвета : BT.2020
Характеристики трансфера : PQ
Коэффициенты матрицы : BT.2020 non-constant
MasteringDisplay_ColorPrimaries : BT.709
MasteringDisplay_Luminance : min: 0.0050 cd/m2, max: 4000 cd/m2
MaxCLL : 3991 cd/m2
MaxFALL : 240 cd/m2

Аудио #1
Идентификатор : 2
Формат : AC-3
Формат/Информация : Audio Coding 3
Идентификатор кодека : A_AC3
Продолжительность : 1 ч. 34 м.
Вид битрейта : Постоянный
Битрейт : 640 Кбит/сек
Каналы : 6 каналов
Расположение каналов : Front: L C R, Side: L R, LFE
Частота : 48,0 КГц
Частота кадров : 31,250 кадров/сек (1536 SPF)
Битовая глубина : 16 бит
Метод сжатия : С потерями
Задержка видео : 24 мс.
Размер потока : 434 Мбайт (1%)
Заголовок : | Дублированный |
Язык : Russian
ServiceKind : Complete Main
Default : Да
Forced : Нет

Аудио #2
Идентификатор : 3
Формат : AC-3
Формат/Информация : Audio Coding 3
Идентификатор кодека : A_AC3
Продолжительность : 1 ч. 34 м.
Вид битрейта : Постоянный
Битрейт : 640 Кбит/сек
Каналы : 6 каналов
Расположение каналов : Front: L C R, Side: L R, LFE
Частота : 48,0 КГц
Частота кадров : 31,250 кадров/сек (1536 SPF)
Битовая глубина : 16 бит
Метод сжатия : С потерями
Задержка видео : 24 мс.
Размер потока : 434 Мбайт (1%)
Заголовок : | Дублированный |
Язык : Ukrainian
ServiceKind : Complete Main
Default : Нет
Forced : Нет

Аудио #3
Идентификатор : 4
Формат : TrueHD
Профиль формата : TrueHD+Atmos / TrueHD
Идентификатор кодека : A_TRUEHD
Продолжительность : 1 ч. 34 м.
Вид битрейта : Переменный
Битрейт : 4603 Кбит/сек
Максимальный битрейт : 8133 Кбит/сек
Каналы : Object Based / 8 каналов
Расположение каналов : Object Based / Front: L C R, Side: L R, Back: L R, LFE
Частота : / 48,0 КГц
Частота кадров : 1200,000 кадров/сек (40 SPF)
Метод сжатия : Без потерь
Размер потока : 3,05 Гбайт (8%)
Заголовок : | Original, THD |
Язык : English
Default : Нет
Forced : Нет

Аудио #4
Идентификатор : 5
Формат : DTS
Формат/Информация : Digital Theater Systems
Профиль формата : MA / Core
Идентификатор кодека : A_DTS
Продолжительность : 1 ч. 34 м.
Вид битрейта : Переменный / Постоянный
Битрейт : 2222 Кбит/сек / 1509 Кбит/сек
Каналы : 6 каналов
Расположение каналов : Front: L C R, Side: L R, LFE
Частота : 48,0 КГц
Частота кадров : 93,750 кадра/сек (512 SPF)
Битовая глубина : 16 бит
Метод сжатия : Без потерь / Lossy
Размер потока : 1,47 Гбайт (4%)
Заголовок : | Original, DTS-HD |
Язык : English
Default : Нет
Forced : Нет

Аудио #5
Идентификатор : 6
Формат : AC-3
Формат/Информация : Audio Coding 3
Идентификатор кодека : A_AC3
Продолжительность : 1 ч. 34 м.
Вид битрейта : Постоянный
Битрейт : 640 Кбит/сек
Каналы : 6 каналов
Расположение каналов : Front: L C R, Side: L R, LFE
Частота : 48,0 КГц
Частота кадров : 31,250 кадров/сек (1536 SPF)
Битовая глубина : 16 бит
Метод сжатия : С потерями
Размер потока : 434 Мбайт (1%)
Заголовок : | Original, AC3 Core |
Язык : English
ServiceKind : Complete Main
Default : Нет
Forced : Нет

Аудио #6
Идентификатор : 7
Формат : AC-3
Формат/Информация : Audio Coding 3
Идентификатор кодека : A_AC3
Продолжительность : 1 ч. 34 м.
Вид битрейта : Постоянный
Битрейт : 640 Кбит/сек
Каналы : 6 каналов
Расположение каналов : Front: L C R, Side: L R, LFE
Частота : 48,0 КГц
Частота кадров : 31,250 кадров/сек (1536 SPF)
Битовая глубина : 16 бит
Метод сжатия : С потерями
Задержка видео : 24 мс.
Размер потока : 434 Мбайт (1%)
Заголовок : | Audiodeion |
Язык : English
ServiceKind : Complete Main
Default : Нет
Forced : Нет

Аудио #7
Идентификатор : 8
Формат : AC-3
Формат/Информация : Audio Coding 3
Идентификатор кодека : A_AC3
Продолжительность : 1 ч. 34 м.
Вид битрейта : Постоянный
Битрейт : 640 Кбит/сек
Каналы : 6 каналов
Расположение каналов : Front: L C R, Side: L R, LFE
Частота : 48,0 КГц
Частота кадров : 31,250 кадров/сек (1536 SPF)
Битовая глубина : 16 бит
Метод сжатия : С потерями
Задержка видео : 24 мс.
Размер потока : 434 Мбайт (1%)
Заголовок : | Audiodeion |
Язык : English
ServiceKind : Complete Main
Default : Нет
Forced : Нет

Текст #1
Идентификатор : 9
Формат : UTF-8
Идентификатор кодека : S_TEXT/UTF8
Идентификатор кодека/Информация : UTF-8 Plain Text
Продолжительность : 1 ч. 33 м.
Битрейт : 111 бит/сек
ElementCount : 1556
Размер потока : 76,4 Кбайт (0%)
Заголовок : Full
Язык : Russian
Default : Нет
Forced : Нет

Текст #2
Идентификатор : 10
Формат : UTF-8
Идентификатор кодека : S_TEXT/UTF8
Идентификатор кодека/Информация : UTF-8 Plain Text
Продолжительность : 1 ч. 33 м.
Битрейт : 104 бит/сек
ElementCount : 1556
Размер потока : 71,8 Кбайт (0%)
Заголовок : Full
Язык : Ukrainian
Default : Нет
Forced : Нет

Текст #3
Идентификатор : 11
Формат : UTF-8
Идентификатор кодека : S_TEXT/UTF8
Идентификатор кодека/Информация : UTF-8 Plain Text
Продолжительность : 1 ч. 33 м.
Битрейт : 71 бит/сек
ElementCount : 1726
Размер потока : 49,5 Кбайт (0%)
Заголовок : Full
Язык : English
Default : Нет
Forced : Нет

Меню
00:00:00.000 : en:Chapter 1
00:04:04.786 : en:Chapter 2
00:08:26.297 : en:Chapter 3
00:15:11.702 : en:Chapter 4
00:21:00.634 : en:Chapter 5
00:25:43.583 : en:Chapter 6
00:30:50.265 : en:Chapter 7
00:38:00.861 : en:Chapter 8
00:44:37.341 : en:Chapter 9
00:50:07.671 : en:Chapter 10
00:56:21.294 : en:Chapter 11
01:01:07.580 : en:Chapter 12
01:07:02.560 : en:Chapter 13
01:10:30.809 : en:Chapter 14
01:14:35.137 : en:Chapter 15
01:21:51.990 : en:Chapter 16




Скачать Кролик Питер через торрент https://d.radikal.ru/d21/1805/80/f34216d3e354.jpg Скачать, смотреть онлайн Кролик Питер бесплантно в хорошем качестве Описание: Фильм о приключениях маленького и непоседливого крольчонка по имени Питер, который хочет пробраться в огород к грозному фермеру и ... 10 10 3
Торрент: Зарегистрирован [2018-05-04 20:10] · скачан: 69 раз
Статус: √ проверено
Размер: 39.86 GB
Как cкачать? Как скачать Кролик Питер через торрент | UTorrent

% Раздел Тема Автор DL S | L
Фильмы 2021 [DVDrip, WEB-DLRip, HDrip] (DUB, MVO) [ 1.46 GB ] Кролик Питер 2 / Peter Rabbit 2: The Runaway | | DLRip Twi7ter Скачать
4 | 0
Фильмы 2021 [DVDrip, WEB-DLRip, HDrip] (DUB, MVO) [ 1.46 GB ] Кролик Питер 2 / Peter Rabbit 2: The Runaway | Лицензия | BDRip Twi7ter Скачать
17 | 0
Фильмы 2021 [DVDrip, WEB-DLRip, HDrip] (DUB, MVO) [ 2.19 GB ] Кролик Питер 2 / Peter Rabbit 2: The Runaway | Лицензия | HDRip-AVC Lithuania Скачать
1 | 1
Фильмы 2021 [DVDrip, WEB-DLRip, HDrip] (DUB, MVO) [ 1.46 GB ] Кролик Питер 2 / Peter Rabbit 2: The Runaway | Лицензия Blu-Ray 4K | BDRip bober100 Скачать
2 | 0
Фильмы 2021 [DVDrip, WEB-DLRip, HDrip] (DUB, MVO) [ 746 MB ] Кролик Питер 2 / Peter Rabbit 2: The Runaway | Лицензия Blu-Ray 4K | BDRip bober100 Скачать
1 | 0
Фильмы (Blu-ray, BD-Remux, HDDVD) [ 17.93 GB ] Кролик Питер 2 / Peter Rabbit 2: The Runaway | Лицензия Blu-Ray 4K | BD Remux 1080p bober100 Скачать
2 | 0
Фильмы [HD 720p, 1080p] (Хороший звук DUB, MVO) [ 3.53 GB ] Кролик Питер 2 / Peter Rabbit 2: The Runaway | Лицензия Blu-Ray 4K | 720p bober100 Скачать
1 | 0

28-11-2019 20:33  


Отключить вcю реклaмy на сайте, в т.ч. и в плеере онлайн просмотра!

    Дорогой пользователь! Огромная просьба, поблагодарите релизера, оцените раздачу и оставьте свои комментарий, если Вы скачали Кролик Питер через торрент бесплатно!!
    Комментировать посты могут только пользователи прошедшие не сложную регистрацию
    Показать сообщения:    


    Кролик Питер через торрент
    Скачать бесплатно Кролик Питер
    Кролик Питер скачать торрент
    Кролик Питер смотреть онлайн
    Cкачать фильм Кролик Питер бесплатно
    Кролик Питер скачать торрент в хорошем качестве
    Кролик Питер смотреть онлайн бесплатно в хорошем качестве
    Вы не можете начинать темы
    Вы не можете отвечать на сообщения
    Вы не можете редактировать свои сообщения
    Вы не можете удалять свои сообщения
    Вы не можете голосовать в опросах
    Вы не можете прикреплять файлы к сообщениям
    Вы можете скачивать файлы
    Кролик Питер / Peter Rabbit [2018, фэнтези, комедия, приключения, семейный, UHD BDRemux 2160p] Дубляж [Лицензия] смотреть онлайн, скачать торрент picoco.icu