Доктор Стрэндж

Лицензия

Добыча

MVO

Дом дракона

1 сезон

Тор

Лицензия

Мэверик

Лицензия

Там, где раки поют

MVO

Властелин колец

1 сезон

Ultimate

pack

Рекомендуем

30

Repack

ВАЖНО

ВАЖНО

Ghostwire

RePack

jed

RePack

nioh2

RePack

RDR2

RePack

NEED FOR SPEED™ PAYBACK

RePack

скачать торрент

Кинопоиск HD

Острые козырьки 6 сезон

6 сезон

FAR CRY 6

RePack

скачать торрент

Лицензия

скачать торрент

MVO

1

1 сезон

скачать торрент

1 сезон

скачать торрент

Лицензия

  

Крепость на колесах (Олег Ленциус) [1960, СССР, военный, DVDRip от AVP Studio]

Крепость на колесах через торрент piratbit.org

Размер: 745 MB | Добавлен: 4 года 4 мес. назад | Торрент скачан:19 раз
Смотреть онлайн Крепость на колесах | Скачать   

08-05-2018 07:52 Крепость на колесах Скачать торрент  

Крепость на колесах
Страна: СССР
Производство: Киностудия им. Довженко

Жанр: военный
Год выпуска: 1960
Продолжительность: 01:17:46

Перевод: Не требуется
Cубтитры: нет
Оригинальная аудиодорожка: русский

Режиссер: Олег Ленциус

В ролях:
Борис Дмоховский, Григорий Михайлов, Василий Векшин, Андрей Хлебников, Михаил Пуговкин, Наталья Наум, Павел Дубашинский, Анвар Тураев, Борис Харитонов, Николай Козленко, Владимир Мишаков, Владимир Коршун, Александр Ануров, Владимир Волков, Алексей Бунин, Степан Бирилло, Николай Крюков, Владислав Болеславский...
Об актёрах подробней

Описание:
О героической команде бронепоезда N56, совершившей легендарный подвиг в первые дни Великой Отечественной войны на Украине.

Источник: DVD5 R5
Качество видео: DVDRip
Формат видео: AVI

Видео: 704х304 (2,35:1), 25 fps, XviD ~ 1138 kbps avg, 0.213 bit/pixel
Аудио: 48 kHz, Dolby Digital AC3 2.0, 192 kbps

Раздача от:
Общее
Полное имя : Krepost.na.kolesah.1960.DVDRip_[New-team]_by_AVP_Studio.avi
Формат : AVI
Формат/Информация : Audio Video Interleave
Размер файла : 745 Мбайт
Продолжительность : 1 ч. 17 м.
Общий поток : 1340 Кбит/сек
Программа кодирования : VirtualDubMod 1.5.10.3 | www.virtualdub-fr.org || (build 2550/release)
Библиотека кодирования : VirtualDubMod build 2550/release

Видео
Идентификатор : 0
Формат : MPEG-4 Visual
Профиль формата : Advanced Simple@L5
Настройки формата : BVOP1 / Custom Matrix
Параметр BVOP формата : 1
Параметр QPel формата : Нет
Параметр GMC формата : Без точки перехода
Параметр матрицы формата : Выборочная
Идентификатор кодека : XVID
Идентификатор кодека/Подсказка : XviD
Продолжительность : 1 ч. 17 м.
Битрейт : 1138 Кбит/сек
Ширина : 704 пикселя
Высота : 304 пикселя
Соотношение сторон : 2,35:1
Частота кадров : 25,000 кадров/сек
Цветовое пространство : YUV
Субдискретизация насыщенности : 4:2:0
Битовая глубина : 8 бит
Тип развёртки : Прогрессивная
Метод сжатия : С потерями
Бит/(Пиксели*Кадры) : 0.213
Размер потока : 633 Мбайт (85%)
Библиотека кодирования : XviD 73

Аудио
Идентификатор : 1
Формат : AC-3
Формат/Информация : Audio Coding 3
Идентификатор кодека : 2000
Продолжительность : 1 ч. 17 м.
Вид битрейта : Постоянный
Битрейт : 192 Кбит/сек
Каналы : 2 канала
Расположение каналов : Front: L R
Частота : 48,0 КГц
Частота кадров : 31,250 кадров/сек (1536 SPF)
Битовая глубина : 16 бит
Метод сжатия : С потерями
Размер потока : 107 Мбайт (14%)
Выравнивание : Разделение по промежуткам
Продолжительность промежутка : 40 мс. (1,00 видеокадр)
Время предзагрузки промежутка : 500 мс



Скачать Крепость на колесах через торрент http://picplus.ru/img/1805/08/f4ce65ad.png Скачать, смотреть онлайн Крепость на колесах бесплантно в хорошем качестве Описание:О героической команде бронепоезда N56, совершившей легендарный подвиг в первые дни Великой Отечественной войны на Украине. ... 5 10 1
Info! Золотая раздача, скачанное не засчитывается.
Торрент: Зарегистрирован [2018-05-08 07:52] · скачан: 19 раз
Статус: √ проверено
Размер: 745 MB
Как cкачать? Как скачать Крепость на колесах через торрент | UTorrent

% Раздел Тема Автор DL S | L
Кино СССР [ 744 MB ] Крепость на колесах | | DVDRip-AVC от AVP Studio AVP Studio Скачать
1 | 0

28-11-2019 20:33  

Отключить вcю реклaмy на сайте

    Дорогой пользователь! Огромная просьба, поблагодарите релизера, оцените раздачу и оставьте свои комментарий, если Вы скачали Крепость на колесах через торрент бесплатно!!
    Комментировать посты могут только пользователи прошедшие не сложную регистрацию
    Показать сообщения:    


    Крепость на колесах через торрент
    Скачать бесплатно Крепость на колесах
    Крепость на колесах скачать торрент
    Крепость на колесах смотреть онлайн
    Cкачать фильм Крепость на колесах бесплатно
    Крепость на колесах скачать торрент в хорошем качестве
    Крепость на колесах смотреть онлайн бесплатно в хорошем качестве
    Вы не можете начинать темы
    Вы не можете отвечать на сообщения
    Вы не можете редактировать свои сообщения
    Вы не можете удалять свои сообщения
    Вы не можете голосовать в опросах
    Вы не можете прикреплять файлы к сообщениям
    Вы можете скачивать файлы