1 сезон

3 сезон

iTunes

1

iTunes

DUB Netflix

iTunes

13

1 сезон

RePack

30

Deluxe

pack

Легкие деньги

ВАЖНО

ИГРА 18+

pack

RePack

MK11

RePack

jed

RePack

fifa19

RePack

RDR2

RePack

NEED FOR SPEED™ PAYBACK

4 сезон

9 сезон

Бесстыжие 9 сезон

Все сериалы

все сериалы на PB.wtf

RePack

FAR CRY 5

Anonymous, добрый день, мы не успеваем до 1 числа собрать деньги на оплату серверов, помогите нам пожалуйста в это трудное время. В качестве благодарности мы отключим Вам всю рекламу на сайте (укажите свой ник в строку Ваше имя)!

×
  
Magnet ссылка

СашаТаня / Сезон: 6 / Серии: 1-11 из 11 (Михаил Старчак) [2018, Ситком, комедия, SATRip] piratbit.org

СашаТаня через торрент piratbit.org

Размер: 3.41 GB | Добавлен: 3 года назад | Торрент скачан:58 раз
Скачать  

14-05-2018 13:55 СашаТаня Скачать торрент  

СашаТаняГод выпуска: 2018
Страна: Россия
Жанр: Ситком, комедия
Продолжительность: ~ 00:21:03
Субтитры: отсутствуют

Режиссер: Михаил Старчак



В ролях:

Андрей Гайдулян, Валентина Рубцова, Алексей Климушкин, Елена Бирюкова, Татьяна Орлова, Андрей Лебедев, Ксения Хаирова, Олег Новиков, Сергей Рудзевич, Сергей Мурзин, Андрей Свиридов, Павел Кассинский, Виталий Гогунский, Арарат Кещян, Ёлка, Алексей Гаврилов, Лариса Баранова, Алина Кизиярова-Ланина, Екатерина Шукшина, Владимир Епифанцев

Описание:

Смерившись с ипотекой, детским садиком и надоевшим папашей-олигархом, чете Сергеевых станет невыносимо скучно. Настолько, что они обзаведутся новым «ребенком». Кавычки здесь потому, что ребенок этот будет не родной, и даже не приемный. Из некоего города Озерки в Москву нагрянет двоюродная сестра Тани 18-летняя Катя, которая станет для Сергеевых большой и очень симпатичной обузой. Сестренка оказалась девушкой видной, поэтому Саша, положив на нее свой отеческий «надзор», моментально поведет знакомить провинциалку с московскими прелестями: Красной Площадью, Кремлем, ГУМом и другими столичными соблазнами. В общем, не было у Сергеевых забот. Но одной Катеньки для полного «счастья» Саше и Тане будет маловато, поэтому в новых сериях Саша пройдет тест на сексуальную раскрепощенность, найдет странную подработку, вдрызг поссорится с коллегами, а еще будет обстирывать всю свою семью. Татьяна уйдет с головой в работу, что, впрочем, не помешает ей ревновать мужа к новой секретарше, а еще попеременно воспитывать сестру Катеньку и сына Алешку.

Качество: SATRip
Формат: AVI

Видео: XviD, ~ 1700 Кбит/с, 720x400
Аудио: MP3, 2 ch, 192 Кбит/с
скриншот   скриншот   скриншот  

Общее
Полное имя : E:\SashaTanja.s8.SATRip\SashaTanja.s8.01.SATRip.avi
Формат : AVI
Формат/Информация : Audio Video Interleave
Размер файла : 320 Мбайт
Продолжительность : 22 м. 52 с.
Общий поток : 1954 Кбит/сек
Программа кодирования : VirtualDubMod 1.5.10.3 | www.virtualdub-fr.org || (build 2550/release)
Библиотека кодирования : VirtualDub build 29808/release

Видео
Идентификатор : 0
Формат : MPEG-4 Visual
Профиль формата : Advanced Simple@L5
Настройки формата : BVOP2
Параметр BVOP формата : 2
Параметр QPel формата : Нет
Параметр GMC формата : Без точки перехода
Параметр матрицы формата : Default (H.263)
Идентификатор кодека : XVID
Идентификатор кодека/Подсказка : XviD
Продолжительность : 22 м. 52 с.
Битрейт : 1753 Кбит/сек
Ширина : 720 пикселей
Высота : 400 пикселей
Соотношение сторон : 16:9
Частота кадров : 25,000 кадров/сек
Цветовое пространство : YUV
Субдискретизация насыщенности : 4:2:0
Битовая глубина : 8 бит
Тип развёртки : Прогрессивная
Метод сжатия : С потерями
Бит/(Пиксели*Кадры) : 0.243
Размер потока : 287 Мбайт (90%)
Библиотека кодирования : XviD 1.2.1 (UTC 2008-12-04)

Аудио
Идентификатор : 1
Формат : MPEG Audio
Версия формата : Version 1
Профиль формата : Layer 3
Настройки формата : Joint stereo
Идентификатор кодека : 55
Идентификатор кодека/Подсказка : MP3
Продолжительность : 22 м. 52 с.
Вид битрейта : Постоянный
Битрейт : 192 Кбит/сек
Каналы : 2 канала
Частота : 48,0 КГц
Частота кадров : 41,667 кадра/сек (1152 SPF)
Метод сжатия : С потерями
Размер потока : 31,4 Мбайт (10%)
Выравнивание : Соединение по промежуткам
Продолжительность промежутка : 40 мс. (1,00 видеокадр)
Время предзагрузки промежутка : 504 мс.
Библиотека кодирования : LAME3.99r
Настройки программы : -m j -V 4 -q 9 -lowpass 18.6 -b 192

Внимание! Раздача ведётся путём добавления новых серий; при каждом добавлении создаётся новый торрент. Чтобы начать докачку новой серии, пользователям необходимо сделать следующее:
(1) остановить скачивание,
(2) удалить старый торрент у себя из клиента (старые серии удалять не надо),
(3) скачать новый торрент и запустить его у себя в клиенте вместо старого, при этом указать клиенту путь в старую папку куда и должно происходить скачивание новых серий.
Ваш клиент при этом должен произвести хеширование (проверку) старой папки (если не производит сам - помогите ему сделать это), и будет докачивать только те серии которых у вас ещё нет. Старые серии при этом не удаляются, а продолжают раздаваться!
Eсли вы уже удалили старые серии, то предотвратить повторную закачку старых серий можно, отжав галочку в соответствующих местах при запуске нового торрента. По возможности, желательно не удалять старые серии как можно дольше чтобы релизёр не столько продолжал раздавать старые серии, а смог сконцентрироваться на новых.
piratbit.org



Скачать СашаТаня через торрент http://i105.fastpic.ru/big/2018/0514/f0/5a142537e4e19cfd63a41e20f3c00ff0.jpg Скачать фильм СашаТаня через торрент бесплантно в хорошем качестве Описание: Смерившись с ипотекой, детским садиком и надоевшим папашей-олигархом, чете Сергеевых станет невыносимо скучно. Настолько, что они ... 10 10 20
Торрент: Зарегистрирован [2018-05-29 19:07] · скачан: 58 раз
Статус: √ проверено
Размер: 3.41 GB
Как cкачать? Как скачать СашаТаня через торрент | UTorrent

% Раздел Тема Автор DL S | L
TNT serials [ 4.14 GB ] СашаТаня / Сезон: 6 / Серии: 1-11 из 11 + Фильм о фильме [2018 Ситком HDTVRip-AVC] bober100 Скачать
1 | 0
TNT serials [ 3.26 GB ] СашаТаня / Сезон: 6 / Серии: 1-11 из 11 + Фильм о фильме [2018 Ситком HDTVRip] bober100 Скачать
1 | 0
TNT serials [ 14.82 GB ] СашаТаня / Сезон: 6 / Серии: 1-11 из 11 + Фильм о фильме [2018 Ситком HDTV 1080i] bober100 Скачать
1 | 0

28-11-2019 20:33  

Отключить всю рекламу на сайте

    Дорогой пользователь! Огромная просьба, поблагодарите релизера, оцените раздачу и оставьте свои комментарий, если Вы скачали СашаТаня через торрент бесплатно! Внесите свою лепту в развитие PiratBit!
    Комментировать посты могут только пользователи прошедшие не сложную регистрацию
    Показать сообщения:    

    СашаТаня через торрент
    Скачать бесплатно СашаТаня
    СашаТаня скачать торрент
    СашаТаня смотреть онлайн
    Cкачать фильм СашаТаня бесплатно
    СашаТаня скачать торрент в хорошем качестве
    СашаТаня смотреть онлайн бесплатно в хорошем качестве


    Вы не можете начинать темы
    Вы не можете отвечать на сообщения
    Вы не можете редактировать свои сообщения
    Вы не можете удалять свои сообщения
    Вы не можете голосовать в опросах
    Вы не можете прикреплять файлы к сообщениям
    Вы можете скачивать файлы