Достать ножи: Стеклянная луковица

MVO

Добыча

Дубляж

Уэнсдэй

1 сезон

Тор

Дубляж

13 клиническая

1 сезон

Жестокая ночь

MVO

Одни из нас

1 сезон

Deluxe

pack

Рекомендуем

30

Пиратка

ВАЖНО

ВАЖНО

Ghostwire

Пиратка

jed

RePack

nioh2

RePack

RDR2

RePack

NEED FOR SPEED™ PAYBACK

RePack

скачать торрент

Кинопоиск HD

Острые козырьки 6 сезон

6 сезон

FAR CRY 6

RePack

скачать торрент

Лицензия

скачать торрент

MVO

1

1 сезон

скачать торрент

1 сезон

скачать торрент

Лицензия

  

Спасти рядового Райана / Saving Private Ryan (Стивен Спилберг) [1998, Боевик, драма, военный, история, реальные события, UHD BDRip 2160p] Дубляж + 3xMVO + 3xAVO + 2xMVO (ukr)

Спасти рядового Райана через торрент piratbit.org

Размер: 45.69 GB | Добавлен: 4 года 8 мес. назад | Торрент скачан:75 раз
Смотреть онлайн | Скачать | Поддержите нас   

16-05-2018 03:05 Спасти рядового Райана Скачать торрент  

Спасти рядового Райана / Saving Private Ryan

Год выпуска: 1998
Страна: США
Жанр: Боевик, драма, военный, история, реальные события
Продолжительность: 02:49:27
Перевод: Дублированный, профессиональный многоголосый, авторский
Субтитры: Русские, английские, испанские, французские, немецкие, португальские, итальянские, голландские, шведские, норвежские, датские, финские, японские
Режиссер: Стивен Спилберг
В ролях:

Том Хэнкс (Captain Miller), Том Сайзмор (Sergeant Horvath), Эдвард Бёрнс (Private Reiben), Барри Пеппер (Private Jackson), Адам Голдберг (Private Mellish), Вин Дизель (Private Caparzo), Джованни Рибизи (T-4 Medic Wade), Джереми Дэвис (Corporal Upham), Мэтт Дэймон (Private Ryan), Тед Дэнсон (Captain Hamill), Пол Джаматти (Sergeant Hill), Деннис Фарина (Lieutenant Colonel Anderson)
Описание:
Капитан Джон Миллер получает тяжелое задание. Вместе с отрядом из восьми человек Миллер должен отправиться в тыл врага на поиски рядового Джеймса Райана, три родных брата которого почти одновременно погибли на полях сражений.
Рейтинг:

MPAA: R - Лицам до 17 лет обязательно присутствие взрослого
Качество: UHD BDRip 2160p
Контейнер: MKV
Видео: HEVC, 28.4 Мбит/с, 3840x2160, 23.976 кадр/с
Аудио : AC3, 6 ch, 448 Кбит/с /Дублированный
Аудио : DTS, 6 ch, ~ 1509 Кбит/с /AVO, М. Чадов
Аудио : DTS, 6 ch, ~ 755 Кбит/с /MVO, Superbit
Аудио : AC3, 2 ch, 192 Кбит/с /MVO, ОРТ
Аудио : AC3, 2 ch, 192 Кбит/с /MVO, НТВ
Аудио : AC3, 2 ch, 192 Кбит/с /AVO, С.Визгунов
Аудио : AC3, 2 ch, 192 Кбит/с /AVO, Антонов
Аудио : AC3, 2 ch, 192 Кбит/с /MVO, НТН
Аудио : AC3, 2 ch, 192 Кбит/с /MVO, ICTV
Аудио : TrueHD+Atmos, 8 ch, 5467 Кбит/с /Original
Аудио : AC3, 6 ch, 640 Кбит/с /Original
Оригинальные главы присутствуют
«Золотой сателлит» за монтаж, «Грэмми» за музыку к фильму, «Серебряная лента» в Италии и «Чешский лев» в Чехии за лучшую иностранную картину.
Оскар, 1999 год
Победитель (5):
Лучший режиссер (Стивен Спилберг)
Лучшая работа оператора
Лучший звук
Лучший монтаж
Лучший монтаж звука
Номинации (6):
Лучший фильм
Лучшая мужская роль (Том Хэнкс)
Лучший сценарий
Лучшие декорации
Лучший грим
Лучший саундтрек к драматическому фильму
Золотой глобус, 1999 год
Победитель (2):
Лучший фильм (драма)
Лучший режиссер (Стивен Спилберг)
Номинации (3):
Лучшая мужская роль (драма) (Том Хэнкс)
Лучший сценарий
Лучший саундтрек
Премия канала «MTV», 1999 год
Номинации (3):
Лучший фильм
Лучшая экшн-сцена
Лучшая мужская роль (Том Хэнкс)
Британская академия, 1999 год
Победитель (2):
Лучший звук
Лучшие визуальные эффекты
Номинации (8):
Лучший фильм
Лучшая мужская роль (Том Хэнкс)
Лучшая работа оператора
Лучший монтаж
Лучший грим/прически
Лучшая работа художника-постановщика
Премия имени Дэвида Лина за достижения в режиссуре (Стивен Спилберг)
Премия имени Энтони Эскуита за достижения в создании музыки к фильму
Сезар, 1999 год
Номинации (1):
Лучший фильм на иностранном языке
Сатурн, 1999 год
Победитель (1):
Лучший приключенческий фильм, боевик или триллер
Номинации (1):
Лучшие спецэффекты
Европейская киноакадемия, 1998 год
Номинации (1):
Приз Screen International Award
Complete name : G:\Saving.Private.Ryan.1998.2160p.UHD.BluRay.X265-SpaceHD13.mkv
Format : Matroska
Format version : Version 4 / Version 2
File size : 45.7 GiB
Duration : 2 h 49 min
Overall bit rate mode : Variable
Overall bit rate : 38.6 Mb/s
Movie name : Saving.Private.Ryan.1998.2160p.UHD.BluRay.X265-SpaceHD13
Encoded date : UTC 2018-05-13 12:59:55
Writing application : mkvmerge v22.0.0 ('At The End Of The World') 64-bit
Writing library : libebml v1.3.5 + libmatroska v1.4.8

Video
ID : 1
Format : HEVC
Format/Info : High Efficiency Video Coding
Commercial name : HDR10
Format profile : Main 10@L5.1@High
Codec ID : V_MPEGH/ISO/HEVC
Duration : 2 h 49 min
Bit rate : 28.4 Mb/s
Width : 3 840 pixels
Height : 2 160 pixels
Display aspect ratio : 16:9
Frame rate mode : Constant
Frame rate : 23.976 (24000/1001) FPS
Color space : YUV
Chroma subsampling : 4:2:0 (Type 2)
Bit depth : 10 bits
Bits/(Pixel*Frame) : 0.143
Stream size : 33.7 GiB (74%)
Title : Saving.Private.Ryan.1998.2160p.UHD.BluRay.X265-SpaceHD13
Writing library : x265 2.7+340-aa9102400f24:[Windows][GCC 7.3.0][64 bit] 10bit
Encoding settings : cpuid=1176575 / frame-threads=6 / numa-pools=32 / wpp / no-pmode / no-pme / no-psnr / no-ssim / log-level=2 / input-csp=1 / input-res=3840x2160 / interlace=0 / total-frames=243760 / level-idc=51 / high-tier=1 / uhd-bd=0 / ref=4 / no-allow-non-conformance / repeat-headers / annexb / aud / hrd / info / hash=0 / no-temporal-layers / no-open-gop / min-keyint=24 / keyint=240 / gop-lookahead=0 / bframes=4 / b-adapt=2 / b-pyramid / bframe-bias=0 / rc-lookahead=25 / lookahead-slices=4 / scenecut=40 / radl=0 / no-intra-refresh / ctu=64 / min-cu-size=8 / rect / no-amp / max-tu-size=32 / tu-inter-depth=1 / tu-intra-depth=1 / limit-tu=0 / rdoq-level=2 / dynamic-rd=0.00 / no-ssim-rd / signhide / no-tskip / nr-intra=0 / nr-inter=0 / no-constrained-intra / no-strong-intra-smoothing / max-merge=3 / limit-refs=3 / limit-modes / me=3 / subme=3 / merange=57 / temporal-mvp / weightp / no-weightb / no-analyze-src-pics / deblock=-3:-3 / no-sao / no-sao-non-deblock / rd=4 / no-early-skip / rskip / no-fast-intra / no-tskip-fast / no-cu-lossless / no-b-intra / no-splitrd-skip / rdpenalty=0 / psy-rd=2.00 / psy-rdoq=1.00 / no-rd-refine / no-lossless / cbqpoffs=0 / crqpoffs=0 / rc=crf / crf=22.8 / qcomp=0.60 / qpstep=4 / stats-write=0 / stats-read=0 / vbv-maxrate=160000 / vbv-bufsize=160000 / vbv-init=0.9 / crf-max=0.0 / crf-min=0.0 / ipratio=1.40 / pbratio=1.30 / aq-mode=1 / aq-strength=1.00 / cutree / zone-count=0 / no-strict-cbr / qg-size=32 / no-rc-grain / qpmax=69 / qpmin=0 / no-const-vbv / sar=1 / overscan=0 / videoformat=5 / range=0 / colorprim=9 / transfer=16 / colormatrix=9 / chromaloc=1 / chromaloc-top=2 / chromaloc-bottom=2 / display-window=0 / master-display=G(13250,34500)B(7500,3000)R(34000,16000)WP(15635,16450)L(10000000,1) / max-cll=0,0 / min-luma=0 / max-luma=1023 / log2-max-poc-lsb=8 / vui-timing-info / vui-hrd-info / slices=1 / no-opt-qp-pps / no-opt-ref-list-length-pps / no-multi-pass-opt-rps / scenecut-bias=0.05 / no-opt-cu-delta-qp / no-aq-motion / hdr / hdr-opt / no-dhdr10-opt / no-idr-recovery-sei / analysis-reuse-level=5 / scale-factor=0 / refine-intra=0 / refine-inter=0 / refine-mv=0 / no-limit-sao / ctu-info=0 / no-lowpass-dct / refine-mv-type=0 / copy-pic=1 / max-ausize-factor=1.0 / no-dynamic-refine / no-single-sei
Default : Yes
Forced : No
Color range : Limited
Color primaries : BT.2020
Transfer characteristics : PQ
Matrix coefficients : BT.2020 non-constant
Mastering display color pri : BT.709
Mastering display luminance : min: 0.0001 cd/m2, max: 1000 cd/m2

Audio #1
ID : 2
Format : AC-3
Format/Info : Audio Coding 3
Codec ID : A_AC3
Duration : 2 h 49 min
Bit rate mode : Constant
Bit rate : 448 kb/s
Channel(s) : 6 channels
Channel positions : Front: L C R, Side: L R, LFE
Sampling rate : 48.0 kHz
Frame rate : 31.250 FPS (1536 SPF)
Bit depth : 16 bits
Compression mode : Lossy
Stream size : 542 MiB (1%)
Title : Saving.Private.Ryan.1998.2160p.UHD.BluRay.X265-SpaceHD13.Дубляж
Language : Russian
Service kind : Complete Main
Default : Yes
Forced : Yes

Audio #2
ID : 3
Format : DTS
Format/Info : Digital Theater Systems
Codec ID : A_DTS
Duration : 2 h 49 min
Bit rate mode : Constant
Bit rate : 1 509 kb/s
Channel(s) : 6 channels
Channel positions : Front: L C R, Side: L R, LFE
Sampling rate : 48.0 kHz
Frame rate : 93.750 FPS (512 SPF)
Bit depth : 24 bits
Compression mode : Lossy
Stream size : 1.78 GiB (4%)
Title : Saving.Private.Ryan.1998.2160p.UHD.BluRay.X265-SpaceHD13.AVO, М. Чадов
Language : Russian
Default : No
Forced : No

Audio #3
ID : 4
Format : DTS
Format/Info : Digital Theater Systems
Codec ID : A_DTS
Duration : 2 h 49 min
Bit rate mode : Constant
Bit rate : 755 kb/s
Channel(s) : 6 channels
Channel positions : Front: L C R, Side: L R, LFE
Sampling rate : 48.0 kHz
Frame rate : 93.750 FPS (512 SPF)
Bit depth : 24 bits
Compression mode : Lossy
Stream size : 912 MiB (2%)
Title : Saving.Private.Ryan.1998.2160p.UHD.BluRay.X265-SpaceHD13.MVO, Superbit
Language : Russian
Default : No
Forced : No

Audio #4
ID : 5
Format : AC-3
Format/Info : Audio Coding 3
Codec ID : A_AC3
Duration : 2 h 49 min
Bit rate mode : Constant
Bit rate : 192 kb/s
Channel(s) : 2 channels
Channel positions : Front: L R
Sampling rate : 48.0 kHz
Frame rate : 31.250 FPS (1536 SPF)
Bit depth : 16 bits
Compression mode : Lossy
Stream size : 232 MiB (0%)
Title : Saving.Private.Ryan.1998.2160p.UHD.BluRay.X265-SpaceHD13.MVO, ОРТ
Language : Russian
Service kind : Complete Main
Default : No
Forced : No

Audio #5
ID : 6
Format : AC-3
Format/Info : Audio Coding 3
Codec ID : A_AC3
Duration : 2 h 49 min
Bit rate mode : Constant
Bit rate : 192 kb/s
Channel(s) : 2 channels
Channel positions : Front: L R
Sampling rate : 48.0 kHz
Frame rate : 31.250 FPS (1536 SPF)
Bit depth : 16 bits
Compression mode : Lossy
Stream size : 232 MiB (0%)
Title : Saving.Private.Ryan.1998.2160p.UHD.BluRay.X265-SpaceHD13.MVO, НТВ
Language : Russian
Service kind : Complete Main
Default : No
Forced : No

Audio #6
ID : 7
Format : AC-3
Format/Info : Audio Coding 3
Codec ID : A_AC3
Duration : 2 h 49 min
Bit rate mode : Constant
Bit rate : 192 kb/s
Channel(s) : 2 channels
Channel positions : Front: L R
Sampling rate : 48.0 kHz
Frame rate : 31.250 FPS (1536 SPF)
Bit depth : 16 bits
Compression mode : Lossy
Stream size : 232 MiB (0%)
Title : Saving.Private.Ryan.1998.2160p.UHD.BluRay.X265-SpaceHD13.AVO, С.Визгунов
Language : Russian
Service kind : Complete Main
Default : No
Forced : No

Audio #7
ID : 8
Format : AC-3
Format/Info : Audio Coding 3
Codec ID : A_AC3
Duration : 2 h 49 min
Bit rate mode : Constant
Bit rate : 192 kb/s
Channel(s) : 2 channels
Channel positions : Front: L R
Sampling rate : 48.0 kHz
Frame rate : 31.250 FPS (1536 SPF)
Bit depth : 16 bits
Compression mode : Lossy
Stream size : 232 MiB (0%)
Title : Saving.Private.Ryan.1998.2160p.UHD.BluRay.X265-SpaceHD13.AVO, Антонов
Language : Russian
Service kind : Complete Main
Default : No
Forced : No

Audio #8
ID : 9
Format : AC-3
Format/Info : Audio Coding 3
Codec ID : A_AC3
Duration : 2 h 49 min
Bit rate mode : Constant
Bit rate : 192 kb/s
Channel(s) : 2 channels
Channel positions : Front: L R
Sampling rate : 48.0 kHz
Frame rate : 31.250 FPS (1536 SPF)
Bit depth : 16 bits
Compression mode : Lossy
Stream size : 232 MiB (0%)
Title : Saving.Private.Ryan.1998.2160p.UHD.BluRay.X265-SpaceHD13.MVO, НТН
Language : Ukrainian
Service kind : Complete Main
Default : No
Forced : No

Audio #9
ID : 10
Format : AC-3
Format/Info : Audio Coding 3
Codec ID : A_AC3
Duration : 2 h 49 min
Bit rate mode : Constant
Bit rate : 192 kb/s
Channel(s) : 2 channels
Channel positions : Front: L R
Sampling rate : 48.0 kHz
Frame rate : 31.250 FPS (1536 SPF)
Bit depth : 16 bits
Compression mode : Lossy
Stream size : 232 MiB (0%)
Title : Saving.Private.Ryan.1998.2160p.UHD.BluRay.X265-SpaceHD13.MVO, ICTV
Language : Ukrainian
Service kind : Complete Main
Default : No
Forced : No

Audio #10
ID : 11
Format : TrueHD
Format profile : TrueHD+Atmos / TrueHD
Codec ID : A_TRUEHD
Duration : 2 h 49 min
Bit rate mode : Variable
Bit rate : 5 467 kb/s
Maximum bit rate : 7 932 kb/s
Channel(s) : Object Based / 8 channels
Channel positions : Object Based / Front: L C R, Side: L R, Back: L R, LFE
Sampling rate : / 48.0 kHz
Frame rate : 1 200.000 FPS (40 SPF)
Compression mode : Lossless
Stream size : 6.47 GiB (14%)
Title : Saving.Private.Ryan.1998.2160p.UHD.BluRay.X265-SpaceHD13.Atmos 7.1
Language : English
Default : No
Forced : No

Audio #11
ID : 12
Format : AC-3
Format/Info : Audio Coding 3
Codec ID : A_AC3
Duration : 2 h 49 min
Bit rate mode : Constant
Bit rate : 640 kb/s
Channel(s) : 6 channels
Channel positions : Front: L C R, Side: L R, LFE
Sampling rate : 48.0 kHz
Frame rate : 31.250 FPS (1536 SPF)
Bit depth : 16 bits
Compression mode : Lossy
Stream size : 776 MiB (2%)
Title : Saving.Private.Ryan.1998.2160p.UHD.BluRay.X265-SpaceHD13
Language : English
Service kind : Complete Main
Default : No
Forced : No

Text #1
ID : 13
Format : UTF-8
Codec ID : S_TEXT/UTF8
Codec ID/Info : UTF-8 Plain Text
Duration : 2 h 37 min
Bit rate : 53 b/s
Count of elements : 1701
Stream size : 62.0 KiB (0%)
Title : Stripped SRT
Language : English
Default : No
Forced : No

Text #2
ID : 14
Format : UTF-8
Codec ID : S_TEXT/UTF8
Codec ID/Info : UTF-8 Plain Text
Duration : 2 h 37 min
Bit rate : 53 b/s
Count of elements : 1689
Stream size : 61.9 KiB (0%)
Title : Full SRT
Language : English
Default : No
Forced : No

Text #3
ID : 15
Format : PGS
Muxing mode : zlib
Codec ID : S_HDMV/PGS
Codec ID/Info : Picture based subtitle format used on BDs/HD-DVDs
Duration : 2 h 37 min
Bit rate : 32.1 kb/s
Count of elements : 3378
Stream size : 36.1 MiB (0%)
Title : Full
Language : English
Default : No
Forced : No

Text #4
ID : 16
Format : UTF-8
Codec ID : S_TEXT/UTF8
Codec ID/Info : UTF-8 Plain Text
Duration : 2 h 37 min
Bit rate : 56 b/s
Count of elements : 1810
Stream size : 65.4 KiB (0%)
Title : SDH SRT
Language : English
Default : No
Forced : No

Text #5
ID : 17
Format : PGS
Muxing mode : zlib
Codec ID : S_HDMV/PGS
Codec ID/Info : Picture based subtitle format used on BDs/HD-DVDs
Duration : 2 h 37 min
Bit rate : 34.4 kb/s
Count of elements : 3620
Stream size : 38.7 MiB (0%)
Title : SDH
Language : English
Default : No
Forced : No

Text #6
ID : 18
Format : PGS
Muxing mode : zlib
Codec ID : S_HDMV/PGS
Codec ID/Info : Picture based subtitle format used on BDs/HD-DVDs
Duration : 2 h 9 min
Bit rate : 1 853 b/s
Count of elements : 162
Stream size : 1.72 MiB (0%)
Title : Forced
Language : Russian
Default : No
Forced : No

Text #7
ID : 19
Format : PGS
Muxing mode : zlib
Codec ID : S_HDMV/PGS
Codec ID/Info : Picture based subtitle format used on BDs/HD-DVDs
Duration : 2 h 40 min
Bit rate : 49.2 kb/s
Count of elements : 4364
Stream size : 56.3 MiB (0%)
Title : Full
Language : Russian
Default : Yes
Forced : Yes

Text #8
ID : 20
Format : PGS
Muxing mode : zlib
Codec ID : S_HDMV/PGS
Codec ID/Info : Picture based subtitle format used on BDs/HD-DVDs
Duration : 2 h 48 min
Bit rate : 25.7 kb/s
Count of elements : 2950
Stream size : 30.9 MiB (0%)
Language : French
Default : No
Forced : No

Text #9
ID : 21
Format : PGS
Muxing mode : zlib
Codec ID : S_HDMV/PGS
Codec ID/Info : Picture based subtitle format used on BDs/HD-DVDs
Duration : 2 h 48 min
Bit rate : 28.1 kb/s
Count of elements : 3378
Stream size : 33.9 MiB (0%)
Title : EU
Language : Spanish
Default : No
Forced : No

Text #10
ID : 22
Format : PGS
Muxing mode : zlib
Codec ID : S_HDMV/PGS
Codec ID/Info : Picture based subtitle format used on BDs/HD-DVDs
Duration : 2 h 48 min
Bit rate : 23.1 kb/s
Count of elements : 2908
Stream size : 27.9 MiB (0%)
Title : Latin
Language : Spanish
Default : No
Forced : No

Text #11
ID : 23
Format : PGS
Muxing mode : zlib
Codec ID : S_HDMV/PGS
Codec ID/Info : Picture based subtitle format used on BDs/HD-DVDs
Duration : 2 h 48 min
Bit rate : 21.5 kb/s
Count of elements : 2770
Stream size : 26.0 MiB (0%)
Language : Portuguese
Default : No
Forced : No

Text #12
ID : 24
Format : PGS
Muxing mode : zlib
Codec ID : S_HDMV/PGS
Codec ID/Info : Picture based subtitle format used on BDs/HD-DVDs
Duration : 2 h 48 min
Bit rate : 25.6 kb/s
Count of elements : 3194
Stream size : 30.8 MiB (0%)
Language : Italian
Default : No
Forced : No

Text #13
ID : 25
Format : PGS
Muxing mode : zlib
Codec ID : S_HDMV/PGS
Codec ID/Info : Picture based subtitle format used on BDs/HD-DVDs
Duration : 2 h 48 min
Bit rate : 30.4 kb/s
Count of elements : 3412
Stream size : 36.7 MiB (0%)
Language : German
Default : No
Forced : No

Text #14
ID : 26
Format : PGS
Muxing mode : zlib
Codec ID : S_HDMV/PGS
Codec ID/Info : Picture based subtitle format used on BDs/HD-DVDs
Duration : 2 h 45 min
Bit rate : 26.6 kb/s
Count of elements : 3376
Stream size : 31.5 MiB (0%)
Language : Dutch
Default : No
Forced : No

Text #15
ID : 27
Format : PGS
Muxing mode : zlib
Codec ID : S_HDMV/PGS
Codec ID/Info : Picture based subtitle format used on BDs/HD-DVDs
Duration : 2 h 45 min
Bit rate : 25.4 kb/s
Count of elements : 3378
Stream size : 30.1 MiB (0%)
Language : Swedish
Default : No
Forced : No

Text #16
ID : 28
Format : PGS
Muxing mode : zlib
Codec ID : S_HDMV/PGS
Codec ID/Info : Picture based subtitle format used on BDs/HD-DVDs
Duration : 2 h 45 min
Bit rate : 26.0 kb/s
Count of elements : 3372
Stream size : 30.8 MiB (0%)
Language : Norwegian
Default : No
Forced : No

Text #17
ID : 29
Format : PGS
Muxing mode : zlib
Codec ID : S_HDMV/PGS
Codec ID/Info : Picture based subtitle format used on BDs/HD-DVDs
Duration : 2 h 45 min
Bit rate : 26.3 kb/s
Count of elements : 3378
Stream size : 31.2 MiB (0%)
Language : Danish
Default : No
Forced : No

Text #18
ID : 30
Format : PGS
Muxing mode : zlib
Codec ID : S_HDMV/PGS
Codec ID/Info : Picture based subtitle format used on BDs/HD-DVDs
Duration : 2 h 45 min
Bit rate : 28.3 kb/s
Count of elements : 3378
Stream size : 33.5 MiB (0%)
Language : Finnish
Default : No
Forced : No

Text #19
ID : 31
Format : PGS
Muxing mode : zlib
Codec ID : S_HDMV/PGS
Codec ID/Info : Picture based subtitle format used on BDs/HD-DVDs
Duration : 2 h 38 min
Bit rate : 18.1 kb/s
Count of elements : 2816
Stream size : 20.5 MiB (0%)
Language : Japanese
Default : No
Forced : No

Menu
00:00:00.000 : en:00:00:00.000
00:04:30.437 : en:00:04:30.437
00:13:47.076 : en:00:13:47.076
00:18:56.886 : en:00:18:56.886
00:26:53.487 : en:00:26:53.487
00:36:11.795 : en:00:36:11.795
00:45:47.536 : en:00:45:47.536
00:57:39.456 : en:00:57:39.456
01:05:26.339 : en:01:05:26.339
01:13:45.838 : en:01:13:45.838
01:17:42.074 : en:01:17:42.074
01:24:05.082 : en:01:24:05.082
01:35:29.724 : en:01:35:29.724
01:46:43.188 : en:01:46:43.188
01:59:35.543 : en:01:59:35.543
02:07:25.596 : en:02:07:25.596
02:17:11.598 : en:02:17:11.598
02:26:54.389 : en:02:26:54.389
02:32:42.737 : en:02:32:42.737
02:42:38.916 : en:02:42:38.916



Скачать Спасти рядового Райана через торрент https://c.radikal.ru/c34/1805/53/8264792c47df.png Скачать, смотреть онлайн Спасти рядового Райана бесплантно в хорошем качестве Описание: Капитан Джон Миллер получает тяжелое задание. Вместе с отрядом из восьми человек Миллер должен отправиться в тыл врага на поиски ... 10 10 4
Info! Золотая раздача, скачанное не засчитывается.
Торрент: Зарегистрирован [2018-05-16 03:05] · скачан: 75 раз
Статус: √ проверено
Размер: 45.69 GB
Как cкачать? Как скачать Спасти рядового Райана через торрент | UTorrent

% Раздел Тема Автор DL S | L
Фильмы [HD 720p, 1080p] (Хороший звук DUB, MVO) [ 6.79 GB ] Спасти рядового Райана / Saving Private Ryan | DUB | 1080p killermax2013 Скачать
1 | 0
Фильмы (HD 720p, 1080p) (48-60 fps) [ 45.04 GB ] Спасти рядового Райана / Saving Private Ryan | Дубляж | 1080p, [Дубляж flatro1 Скачать
2 | 1
Ultra HD (UHD: 2K, 4K, 8K) [ 69.31 GB ] Спасти рядового Райана / Saving Private Ryan | DUB | 2160p sheker187 Скачать
1 | 0
Ultra HD (UHD: 2K, 4K, 8K) [ 117.14 GB ] Спасти рядового Райана / Saving Private Ryan | DUB + 4xMVO + 4xAVO + 2xMVO | 2160p sheker187 Скачать
1 | 0
Ultra HD (UHD: 2K, 4K, 8K) [ 104.15 GB ] Спасти рядового Райана / Saving Private Ryan | DUB+5xMVO+2xMVO | 2160p bober100 Скачать
1 | 0
Фильмы (Blu-ray, BD-Remux, HDDVD) [ 52.85 GB ] Спасти рядового Райана / Saving Private Ryan | Дубляж | Спасти рядового Райана / Saving Private Ryan (Стивен Спилберг Jack_orsk Скачать
1 | 1
Фильмы [HD 720p, 1080p] (Хороший звук DUB, MVO) [ 28.18 GB ] Спасти рядового Райана / Saving Private Ryan | Дубляж | 1080p, Дубляж Артронах Скачать
1 | 0

28-11-2019 20:33  


Отключить вcю реклaмy на сайте, в т.ч. и в плеере онлайн просмотра!

    Дорогой пользователь! Огромная просьба, поблагодарите релизера, оцените раздачу и оставьте свои комментарий, если Вы скачали Спасти рядового Райана через торрент бесплатно!!
    Комментировать посты могут только пользователи прошедшие не сложную регистрацию
    Показать сообщения:    


    Спасти рядового Райана через торрент
    Скачать бесплатно Спасти рядового Райана
    Спасти рядового Райана скачать торрент
    Спасти рядового Райана смотреть онлайн
    Cкачать фильм Спасти рядового Райана бесплатно
    Спасти рядового Райана скачать торрент в хорошем качестве
    Спасти рядового Райана смотреть онлайн бесплатно в хорошем качестве
    Вы не можете начинать темы
    Вы не можете отвечать на сообщения
    Вы не можете редактировать свои сообщения
    Вы не можете удалять свои сообщения
    Вы не можете голосовать в опросах
    Вы не можете прикреплять файлы к сообщениям
    Вы можете скачивать файлы
    Спасти рядового Райана / Saving Private Ryan [1998, Боевик, драма, военный, история, реальные события, UHD BDRip 2160p] Дубляж + 3xMVO + 3xAVO + 2xMVO смотреть онлайн, скачать торрент picoco.icu