Достать ножи: Стеклянная луковица

MVO

Добыча

Дубляж

Уэнсдэй

1 сезон

Тор

Дубляж

13 клиническая

1 сезон

Жестокая ночь

MVO

Одни из нас

1 сезон

Deluxe

pack

Рекомендуем

30

Пиратка

ВАЖНО

ВАЖНО

Ghostwire

Пиратка

jed

RePack

nioh2

RePack

RDR2

RePack

NEED FOR SPEED™ PAYBACK

RePack

скачать торрент

Кинопоиск HD

Острые козырьки 6 сезон

6 сезон

FAR CRY 6

RePack

скачать торрент

Лицензия

скачать торрент

MVO

1

1 сезон

скачать торрент

1 сезон

скачать торрент

Лицензия

  

Братья из Гримсби / Grimsby (Луи Летерье) [2016, боевик, комедия, приключения, UHD WEBRip 2160p] Дубляж (rus, ukr)

Братья из Гримсби через торрент piratbit.org

Размер: 20.46 GB | Добавлен: 4 года 8 мес. назад | Торрент скачан:22 раза
Смотреть онлайн | Скачать | Поддержите нас   

20-05-2018 03:57 Братья из Гримсби Скачать торрент  

Братья из Гримсби / Grimsby

Год выпуска: 2016
Страна: Великобритания, Австралия, США, Кения
Жанр: боевик, комедия, приключения
Продолжительность: 01:23:12
Перевод: Дублированный
Субтитры: Русские(Forced,Full), английские, французские, украинские
Режиссер: Луи Летерье
В ролях:

Саша Барон Коэн (Nobby), Марк Стронг (Sebastian Graves), Ребел Уилсон (Dawn Grobham), Пенелопа Крус (Rhonda George), Айла Фишер (Jodie Figgis), Габури Сидибе (Banu the Cleaner), Аннабелль Уоллис (Lina Smit), Иэн МакШейн (MI6 Spy Boss, в титрах не указан), Дэвид Хэрвуд (Black Gareth), Рикки Томлинсон (Paedo Pete), Джонни Вегас (Milky Pimms), Скотт Эдкинс (Pavel Lukashenko)
Описание:
Сверхсекретная операция, которую выполняет образцовый спецагент, с треском провалена из-за некстати свалившегося на его голову неадекватного брата - оголтелого футбольного фаната и полного беспредельщика. Теперь герою предстоит спасти свою жизнь и вдобавок планету от нависшей над ней угрозы - практически невыполнимая задача в тандеме с вновь приобретенным родственником.
Рейтинг:

MPAA: R - Лицам до 17 лет обязательно присутствие взрослого
Качество: UHD WEBRip 2160p
Формат: MKV
Видео: HEVC HDR, 34.5 Мбит/с, 3840x1608, 23.976 Кадр/с
Аудио: Russian (AC3, 6 ch, 640 Кбит/с), |Blu-Ray CEE|
Аудио: Russian (AC3, 6 ch, 384 Кбит/с), |Дубляж iTunes|
Аудио: Ukrainian (AC3, 2 ch, 192 Кбит/с), |Дубляж iTunes|
Аудио: English (DTS-MA, 6 ch, 2312 Кбит/с), |Original|
Аудио: English (DTS-MA, 6 ch, 1509 Кбит/с), |Original|
Аудио: French (DTS-MA, 6 ch, 2344 Кбит/с), |Дубляж|
Аудио: French (DTS-MA, 6 ch, 1509 Кбит/с), |Дубляж|
Complete name : G:\The.Brothers.Grimsby.2016.2160p.HDR.WEBRip.DTS-HD.MA.5.1.EN.FR.x265-SpaceHD13.mkv
Format : Matroska
Format version : Version 4 / Version 2
File size : 20.5 GiB
Duration : 1 h 23 min
Overall bit rate : 35.1 Mb/s
Movie name : The.Brothers.Grimsby.2016.2160p.HDR.WEBRip.DTS-HD.MA.5.1.EN.FR.x265-SpaceHD13
Encoded date : UTC 2018-05-19 19:21:36
Writing application : mkvmerge v22.0.0 ('At The End Of The World') 64-bit
Writing library : libebml v1.3.5 + libmatroska v1.4.8

Video
ID : 1
Format : HEVC
Format/Info : High Efficiency Video Coding
Commercial name : HDR10
Format profile : Main 10@L5@Main
Codec ID : V_MPEGH/ISO/HEVC
Duration : 1 h 23 min
Bit rate : 26.2 Mb/s
Width : 3 840 pixels
Height : 1 608 pixels
Display aspect ratio : 2.40:1
Frame rate mode : Constant
Frame rate : 23.976 (24000/1001) FPS
Color space : YUV
Chroma subsampling : 4:2:0
Bit depth : 10 bits
Bits/(Pixel*Frame) : 0.177
Stream size : 15.2 GiB (75%)
Title : The.Brothers.Grimsby.2016.2160p.HDR.WEBRip.DTS-HD.MA.5.1.EN.FR.x265-SpaceHD13
Default : Yes
Forced : No
Color range : Limited
Color primaries : BT.2020
Transfer characteristics : PQ
Matrix coefficients : BT.2020 non-constant
Mastering display color pri : BT.709
Mastering display luminance : min: 0.0050 cd/m2, max: 3999 cd/m2
Maximum Content Light Level : 4000 cd/m2
Maximum Frame-Average Light : 1000 cd/m2

Audio #1
ID : 2
Format : AC-3
Format/Info : Audio Coding 3
Codec ID : A_AC3
Duration : 1 h 23 min
Bit rate mode : Constant
Bit rate : 640 kb/s
Channel(s) : 6 channels
Channel positions : Front: L C R, Side: L R, LFE
Sampling rate : 48.0 kHz
Frame rate : 31.250 FPS (1536 SPF)
Bit depth : 16 bits
Compression mode : Lossy
Stream size : 381 MiB (2%)
Title : The.Brothers.Grimsby.2016.2160p.HDR.WEBRip.DTS-HD.MA.5.1.EN.FR.x265-SpaceHD13.Дубляж
Language : Russian
Service kind : Complete Main
Default : Yes
Forced : Yes

Audio #2
ID : 3
Format : AC-3
Format/Info : Audio Coding 3
Codec ID : A_AC3
Duration : 1 h 23 min
Bit rate mode : Constant
Bit rate : 384 kb/s
Channel(s) : 6 channels
Channel positions : Front: L C R, Side: L R, LFE
Sampling rate : 48.0 kHz
Frame rate : 31.250 FPS (1536 SPF)
Bit depth : 16 bits
Compression mode : Lossy
Delay relative to video : 4 ms
Stream size : 228 MiB (1%)
Title : The.Brothers.Grimsby.2016.2160p.HDR.WEBRip.DTS-HD.MA.5.1.EN.FR.x265-SpaceHD13.itunes
Language : Russian
Service kind : Complete Main
Default : No
Forced : No

Audio #3
ID : 4
Format : AC-3
Format/Info : Audio Coding 3
Codec ID : A_AC3
Duration : 1 h 23 min
Bit rate mode : Constant
Bit rate : 192 kb/s
Channel(s) : 2 channels
Channel positions : Front: L R
Sampling rate : 48.0 kHz
Frame rate : 31.250 FPS (1536 SPF)
Bit depth : 16 bits
Compression mode : Lossy
Delay relative to video : 4 ms
Stream size : 114 MiB (1%)
Title : The.Brothers.Grimsby.2016.2160p.HDR.WEBRip.DTS-HD.MA.5.1.EN.FR.x265-SpaceHD13
Language : Ukrainian
Service kind : Complete Main
Default : No
Forced : No

Audio #4
ID : 5
Format : DTS
Format/Info : Digital Theater Systems
Format profile : MA / Core
Codec ID : A_DTS
Duration : 1 h 23 min
Bit rate mode : Variable / Constant
Bit rate : 2 312 kb/s / 1 509 kb/s
Channel(s) : 6 channels
Channel positions : Front: L C R, Side: L R, LFE
Sampling rate : 48.0 kHz
Frame rate : 93.750 FPS (512 SPF)
Bit depth : 16 bits
Compression mode : Lossless / Lossy
Stream size : 1.34 GiB (7%)
Title : The.Brothers.Grimsby.2016.2160p.HDR.WEBRip.DTS-HD.MA.5.1.EN.FR.x265-SpaceHD13
Language : English
Default : No
Forced : No

Audio #5
ID : 6
Format : DTS
Format/Info : Digital Theater Systems
Codec ID : A_DTS
Duration : 1 h 23 min
Bit rate mode : Constant
Bit rate : 1 509 kb/s
Channel(s) : 6 channels
Channel positions : Front: L C R, Side: L R, LFE
Sampling rate : 48.0 kHz
Frame rate : 93.750 FPS (512 SPF)
Bit depth : 16 bits
Compression mode : Lossy
Stream size : 898 MiB (4%)
Title : The.Brothers.Grimsby.2016.2160p.HDR.WEBRip.DTS-HD.MA.5.1.EN.FR.x265-SpaceHD13
Language : English
Default : No
Forced : No

Audio #6
ID : 7
Format : DTS
Format/Info : Digital Theater Systems
Format profile : MA / Core
Codec ID : A_DTS
Duration : 1 h 23 min
Bit rate mode : Variable / Constant
Bit rate : 2 344 kb/s / 1 509 kb/s
Channel(s) : 6 channels
Channel positions : Front: L C R, Side: L R, LFE
Sampling rate : 48.0 kHz
Frame rate : 93.750 FPS (512 SPF)
Bit depth : 16 bits
Compression mode : Lossless / Lossy
Stream size : 1.36 GiB (7%)
Title : The.Brothers.Grimsby.2016.2160p.HDR.WEBRip.DTS-HD.MA.5.1.EN.FR.x265-SpaceHD13
Language : French
Default : No
Forced : No

Audio #7
ID : 8
Format : DTS
Format/Info : Digital Theater Systems
Codec ID : A_DTS
Duration : 1 h 23 min
Bit rate mode : Constant
Bit rate : 1 509 kb/s
Channel(s) : 6 channels
Channel positions : Front: L C R, Side: L R, LFE
Sampling rate : 48.0 kHz
Frame rate : 93.750 FPS (512 SPF)
Bit depth : 16 bits
Compression mode : Lossy
Stream size : 898 MiB (4%)
Title : The.Brothers.Grimsby.2016.2160p.HDR.WEBRip.DTS-HD.MA.5.1.EN.FR.x265-SpaceHD13
Language : French
Default : No
Forced : No

Text #1
ID : 9
Format : PGS
Muxing mode : zlib
Codec ID : S_HDMV/PGS
Codec ID/Info : Picture based subtitle format used on BDs/HD-DVDs
Duration : 1 h 20 min
Bit rate : 1 845 b/s
Count of elements : 58
Stream size : 1.07 MiB (0%)
Title : forced
Language : Russian
Default : Yes
Forced : No

Text #2
ID : 10
Format : PGS
Muxing mode : zlib
Codec ID : S_HDMV/PGS
Codec ID/Info : Picture based subtitle format used on BDs/HD-DVDs
Duration : 1 h 21 min
Bit rate : 63.2 kb/s
Count of elements : 2258
Stream size : 37.0 MiB (0%)
Title : full
Language : Russian
Default : No
Forced : No

Text #3
ID : 11
Format : PGS
Muxing mode : zlib
Codec ID : S_HDMV/PGS
Codec ID/Info : Picture based subtitle format used on BDs/HD-DVDs
Duration : 1 h 21 min
Bit rate : 57.6 kb/s
Count of elements : 2222
Stream size : 33.7 MiB (0%)
Language : Ukrainian
Default : No
Forced : No

Text #4
ID : 12
Format : PGS
Muxing mode : zlib
Codec ID : S_HDMV/PGS
Codec ID/Info : Picture based subtitle format used on BDs/HD-DVDs
Duration : 1 h 22 min
Bit rate : 33.7 kb/s
Count of elements : 2766
Stream size : 19.8 MiB (0%)
Language : English
Default : No
Forced : No

Text #5
ID : 13
Format : PGS
Muxing mode : zlib
Codec ID : S_HDMV/PGS
Codec ID/Info : Picture based subtitle format used on BDs/HD-DVDs
Duration : 1 h 21 min
Bit rate : 22.8 kb/s
Count of elements : 2188
Stream size : 13.4 MiB (0%)
Language : French
Default : No
Forced : No



Скачать Братья из Гримсби через торрент https://c.radikal.ru/c36/1805/20/779aabe5cbd9.png Скачать, смотреть онлайн Братья из Гримсби бесплантно в хорошем качестве Описание: Сверхсекретная операция, которую выполняет образцовый спецагент, с треском провалена из-за некстати свалившегося на его голову ... 10 10 5
Info! Золотая раздача, скачанное не засчитывается.
Торрент: Зарегистрирован [2018-05-20 03:57] · скачан: 22 раз
Статус: √ проверено
Размер: 20.46 GB
Как cкачать? Как скачать Братья из Гримсби через торрент | UTorrent

% Раздел Тема Автор DL S | L
Ultra HD (UHD: 2K, 4K, 8K) [ 17.34 GB ] Братья из Гримсби / Grimsby | DUB | 2160p bober100 Скачать
1 | 0
Фильмы 2016 [DVDrip, WEB-DLRip, HDrip] (DUB, MVO) [ 1.46 GB ] Братья из Гримсби / Grimsby | Лицензия | BDRip Twi7ter Скачать
1 | 0
Фильмы 2016 [DVDrip, WEB-DLRip, HDrip] (DUB, MVO) [ 1.46 GB ] Братья из Гримсби / Grimsby | Лицензия | BDRip-AVC от sokol_ok sokol_ok Скачать
3 | 0
Фильмы 2016 [DVDrip, WEB-DLRip, HDrip] (DUB, MVO) [ 745 MB ] Братья из Гримсби / Grimsby | Лицензия | BDRip-AVC от sokol_ok sokol_ok Скачать
2 | 0
Фильмы 2016 [DVDrip, WEB-DLRip, HDrip] (DUB, MVO) [ 2.18 GB ] Братья из Гримсби / Grimsby | Лицензия | BDRip-AVC от sokol_ok sokol_ok Скачать
2 | 0
Фильмы (Blu-ray, BD-Remux, HDDVD) [ 16.16 GB ] Братья из Гримсби / Grimsby | Лицензия | 1080p от ExKinoRay Russian Mafia Скачать
1 | 0
R.G. Resident & PiratVoice - Фильмы, Видео [ 1.52 GB ] Братья из Гримсби / Grimsby | iTunes R.G.Resident | BDRip-AVC, Дубляж Хорват Скачать
2 | 0

28-11-2019 20:33  


Отключить вcю реклaмy на сайте, в т.ч. и в плеере онлайн просмотра!

    Дорогой пользователь! Огромная просьба, поблагодарите релизера, оцените раздачу и оставьте свои комментарий, если Вы скачали Братья из Гримсби через торрент бесплатно!!
    Комментировать посты могут только пользователи прошедшие не сложную регистрацию
    Показать сообщения:    


    Братья из Гримсби через торрент
    Скачать бесплатно Братья из Гримсби
    Братья из Гримсби скачать торрент
    Братья из Гримсби смотреть онлайн
    Cкачать фильм Братья из Гримсби бесплатно
    Братья из Гримсби скачать торрент в хорошем качестве
    Братья из Гримсби смотреть онлайн бесплатно в хорошем качестве
    Вы не можете начинать темы
    Вы не можете отвечать на сообщения
    Вы не можете редактировать свои сообщения
    Вы не можете удалять свои сообщения
    Вы не можете голосовать в опросах
    Вы не можете прикреплять файлы к сообщениям
    Вы можете скачивать файлы
    Братья из Гримсби / Grimsby [2016, боевик, комедия, приключения, UHD WEBRip 2160p] Дубляж смотреть онлайн, скачать торрент picoco.icu